<?xml version="1.0" standalone="no"?>
<!DOCTYPE svg PUBLIC "-//W3C//DTD SVG 1.1//EN" "http://www.w3.org/Graphics/SVG/1.1/DTD/svg11.dtd" >
<svg>
<metadata>
Created by FontForge 20090622 at Wed May 15 03:56:49 2019
 By deploy user
Copyright &#194;&#169; 2018 by Gumpita Rahayu. All rights reserved.
</metadata>
<defs>
<font id="Mohave-Regular" horiz-adv-x="469" >
  <font-face 
    font-family="Mohave"
    font-weight="400"
    font-stretch="normal"
    units-per-em="1000"
    panose-1="0 0 5 0 0 0 0 0 0 0"
    ascent="780"
    descent="-220"
    x-height="544"
    cap-height="750"
    bbox="-155 -403 960 986"
    underline-thickness="58"
    underline-position="-22"
    unicode-range="U+0020-U+FB02"
  />
<missing-glyph horiz-adv-x="504" 
d="M82 0v750h340v-750h-340zM148 66h208v618h-208v-618z" />
    <glyph glyph-name="fi" unicode="fi" horiz-adv-x="541" 
d="M105 0v468h-101v76h101v35q0 80 47.5 130.5t125.5 50.5h40v-80h-40q-42 0 -67.5 -28t-25.5 -73v-35h133v-76h-133v-468h-80zM391 601v119h81v-119h-81zM391 0v544h81v-544h-81z" />
    <glyph glyph-name="fl" unicode="fl" horiz-adv-x="541" 
d="M105 0v468h-101v76h101v35q0 80 47.5 130.5t125.5 50.5h40v-80h-40q-42 0 -67.5 -28t-25.5 -73v-35h133v-76h-133v-468h-80zM391 0v750h81v-750h-81z" />
    <glyph glyph-name="f_f" unicode="ff" horiz-adv-x="644" 
d="M105 0v468h-101v76h101v35q0 80 47.5 130.5t125.5 50.5h40v-80h-40q-42 0 -67.5 -28t-25.5 -73v-35h133v-76h-133v-468h-80zM427 0v468h-101v76h101v35q0 80 47.5 130.5t125.5 50.5h40v-80h-40q-42 0 -67.5 -28t-25.5 -73v-35h133v-76h-133v-468h-80z" />
    <glyph glyph-name="f_f_i" unicode="ffi" horiz-adv-x="863" 
d="M105 0v468h-101v76h101v35q0 80 47.5 130.5t125.5 50.5h40v-80h-40q-42 0 -67.5 -28t-25.5 -73v-35h133v-76h-133v-468h-80zM427 0v468h-101v76h101v35q0 80 47.5 130.5t125.5 50.5h40v-80h-40q-42 0 -67.5 -28t-25.5 -73v-35h133v-76h-133v-468h-80zM713 601v119h81
v-119h-81zM713 0v544h81v-544h-81z" />
    <glyph glyph-name="f_f_l" unicode="ffl" horiz-adv-x="863" 
d="M105 0v468h-101v76h101v35q0 80 47.5 130.5t125.5 50.5h40v-80h-40q-42 0 -67.5 -28t-25.5 -73v-35h133v-76h-133v-468h-80zM427 0v468h-101v76h101v35q0 80 47.5 130.5t125.5 50.5h40v-80h-40q-42 0 -67.5 -28t-25.5 -73v-35h133v-76h-133v-468h-80zM713 0v750h81v-750
h-81z" />
    <glyph glyph-name=".notdef" horiz-adv-x="504" 
d="M82 0v750h340v-750h-340zM148 66h208v618h-208v-618z" />
    <glyph glyph-name="uni0000" horiz-adv-x="600" 
 />
    <glyph glyph-name="uni0000" horiz-adv-x="600" 
 />
    <glyph glyph-name="nonmarkingreturn" horiz-adv-x="333" 
 />
    <glyph glyph-name="space" unicode=" " horiz-adv-x="218" 
 />
    <glyph glyph-name="exclam" unicode="!" horiz-adv-x="276" 
d="M96 210v540h84v-540h-84zM96 0v150h84v-150h-84z" />
    <glyph glyph-name="quotedbl" unicode="&#x22;" horiz-adv-x="426" 
d="M76 526l40 224h80l-40 -224h-80zM229 526l40 224h81l-40 -224h-81z" />
    <glyph glyph-name="numbersign" unicode="#" horiz-adv-x="574" 
d="M525 494h-84v-214h84v-84h-84v-196h-84v196l-139 1v-197h-84v197h-85v83h85v215h-85v83h85v172h84v-172h139v172h84v-172h84v-84zM357 280v214l-139 1v-215h139z" />
    <glyph glyph-name="dollar" unicode="$" horiz-adv-x="496" 
d="M427 554h-84v27q0 38 -18.5 64t-50.5 34v-267q70 -8 111.5 -58t41.5 -126v-59q0 -76 -41.5 -126t-111.5 -58v-85h-55v86q-69 9 -109.5 58t-40.5 125v27h84v-27q0 -37 17.5 -63t48.5 -34v259q-69 9 -109.5 58t-40.5 125v67q0 76 40.5 125t109.5 58v86h55v-85
q70 -8 111.5 -58t41.5 -126v-27zM153 514q0 -37 17.5 -63t48.5 -34v261q-31 -8 -48.5 -34t-17.5 -63v-67zM343 228q0 38 -18.5 64t-50.5 34v-255q32 8 50.5 34t18.5 64v59z" />
    <glyph glyph-name="percent" unicode="%" horiz-adv-x="710" 
d="M174 407q-55 0 -88.5 34t-33.5 89v109q0 56 33.5 90t88.5 34q54 0 87.5 -34.5t33.5 -89.5v-109q0 -55 -33.5 -89t-87.5 -34zM155 0l329 750h71l-329 -750h-71zM174 472q25 0 40 16t15 42v109q0 26 -15 42.5t-40 16.5t-40.5 -16.5t-15.5 -42.5v-109q0 -26 15.5 -42
t40.5 -16zM536 -13q-54 0 -87.5 34t-33.5 89v109q0 55 33.5 89.5t87.5 34.5q55 0 88 -34t33 -90v-109q0 -56 -33 -89.5t-88 -33.5zM536 52q25 0 40 16t15 42v109q0 26 -15 42.5t-40 16.5t-40.5 -16.5t-15.5 -42.5v-109q0 -26 15.5 -42t40.5 -16z" />
    <glyph glyph-name="ampersand" unicode="&#x26;" horiz-adv-x="534" 
d="M256 -13q-81 0 -130 51t-49 134v68q0 109 79 159l-79 136v43q0 83 49 134t130 51t130 -51t49 -134v-27h-84v27q0 46 -26 73.5t-69 27.5t-69 -27.5t-26 -73.5v-43l196 -333l40 215h70l-55 -311l54 -92v-14h-78l-20 33q-41 -46 -112 -46zM256 71q48 0 73 31l-130 221
q-38 -27 -38 -83v-68q0 -46 26 -73.5t69 -27.5z" />
    <glyph glyph-name="quotesingle" unicode="'" horiz-adv-x="272" 
d="M76 526l40 224h80l-40 -224h-80z" />
    <glyph glyph-name="parenleft" unicode="(" horiz-adv-x="329" 
d="M249 -180q-81 0 -129.5 51t-48.5 134v590q0 83 48.5 134t129.5 51h58v-84h-58q-43 0 -68.5 -27.5t-25.5 -73.5v-590q0 -46 25.5 -73.5t68.5 -27.5h58v-84h-58z" />
    <glyph glyph-name="parenright" unicode=")" horiz-adv-x="329" 
d="M22 -180v84h58q43 0 68.5 27.5t25.5 73.5v590q0 46 -25.5 73.5t-68.5 27.5h-58v84h58q81 0 129.5 -51t48.5 -134v-590q0 -83 -48.5 -134t-129.5 -51h-58z" />
    <glyph glyph-name="asterisk" unicode="*" horiz-adv-x="452" 
d="M387 654l-99 -57l99 -58l-30 -53l-100 58v-102h-61v102l-100 -58l-30 53l100 58l-100 58l29 53l101 -58v100h61v-101l101 58z" />
    <glyph glyph-name="plus" unicode="+" horiz-adv-x="538" 
d="M483 314v-84h-171v-151h-85v151h-172v84h172v152h85v-152h171z" />
    <glyph glyph-name="comma" unicode="," horiz-adv-x="272" 
d="M76 -57l40 182h80l-40 -182h-80z" />
    <glyph glyph-name="hyphen" unicode="-" horiz-adv-x="426" 
d="M69 230v84h287v-84h-287z" />
    <glyph glyph-name="period" unicode="." horiz-adv-x="276" 
d="M96 0v125h84v-125h-84z" />
    <glyph glyph-name="slash" unicode="/" horiz-adv-x="355" 
d="M0 -50l268 830h87l-268 -830h-87z" />
    <glyph glyph-name="zero" unicode="0" horiz-adv-x="499" 
d="M250 766q81 0 129.5 -51t48.5 -134v-412q0 -83 -48.5 -134t-129.5 -51t-130 51t-49 134v412q0 83 49 134t130 51zM155 581v-412q0 -19 4 -32l144 530q-23 15 -53 15q-43 0 -69 -27.5t-26 -73.5zM344 169v412q0 17 -3 30l-145 -528q22 -15 54 -15q43 0 68.5 27.5
t25.5 73.5z" />
    <glyph glyph-name="one" unicode="1" horiz-adv-x="289" 
d="M123 0v580h-104v84h20q40 0 62 20t22 55v11h84v-750h-84z" />
    <glyph glyph-name="two" unicode="2" horiz-adv-x="447" 
d="M400 507q0 -42 -20 -82t-50 -70l-64.5 -63l-64.5 -61.5t-50 -64.5t-20 -72v-10h269v-84h-357v72q0 53 20 101t50.5 81t66 66.5l66 60t50.5 59.5t20 67v74q0 46 -25.5 73.5t-68.5 27.5t-69 -27.5t-26 -73.5v-27h-84v27q0 83 49 134t130 51t129.5 -51t48.5 -134v-74z" />
    <glyph glyph-name="three" unicode="3" horiz-adv-x="463" 
d="M398 527q0 -94 -59 -142q59 -51 59 -144v-72q0 -83 -48.5 -134t-129.5 -51t-130 51t-49 134v27h84v-27q0 -46 26 -73.5t69 -27.5t68.5 27.5t25.5 73.5v72q0 46 -25.5 73.5t-68.5 27.5h-62v84h62q43 0 68.5 27.5t25.5 73.5v54q0 46 -25.5 73.5t-68.5 27.5t-69 -27.5
t-26 -73.5v-27h-84v27q0 83 49 134t130 51t129.5 -51t48.5 -134v-54z" />
    <glyph glyph-name="four" unicode="4" horiz-adv-x="478" 
d="M382 241h68v-83h-68v-158h-84v158h-276v76l279 516h81v-509zM298 241v355l-188 -355h188z" />
    <glyph glyph-name="five" unicode="5" horiz-adv-x="483" 
d="M255 500q78 0 126.5 -51t48.5 -134v-146q0 -83 -49 -134t-130 -51q-80 0 -129 51t-49 134v27h84v-27q0 -46 25.5 -73.5t68.5 -27.5t69 27.5t26 73.5v146q0 46 -26.5 73.5t-71.5 27.5q-42 0 -66.5 -27.5t-24.5 -73.5v-10h-84v445h346v-84h-262v-206q35 40 98 40z" />
    <glyph glyph-name="six" unicode="6" horiz-adv-x="490" 
d="M428 554h-84v27q0 46 -25.5 73.5t-68.5 27.5t-69 -27.5t-26 -73.5v-122q36 41 98 41q79 0 127 -51t48 -134v-146q0 -83 -48.5 -134t-129.5 -51t-130 51t-49 134v412q0 83 49 134t130 51t129.5 -51t48.5 -134v-27zM246 416q-42 0 -66.5 -27.5t-24.5 -73.5v-146
q0 -46 26 -73.5t69 -27.5t68.5 27.5t25.5 73.5v146q0 46 -26.5 73.5t-71.5 27.5z" />
    <glyph glyph-name="seven" unicode="7" horiz-adv-x="390" 
d="M16 750h349v-75l-188 -675h-89l190 666h-262v84z" />
    <glyph glyph-name="eight" unicode="8" horiz-adv-x="486" 
d="M422 526q0 -93 -60 -142q60 -52 60 -144v-71q0 -83 -49 -134t-130 -51t-129.5 51t-48.5 134v71q0 93 59 144q-59 48 -59 142v55q0 83 48.5 134t129.5 51t130 -51t49 -134v-55zM338 526v55q0 46 -26 73.5t-69 27.5t-68.5 -27.5t-25.5 -73.5v-55q0 -46 25.5 -73.5
t68.5 -27.5t69 27.5t26 73.5zM338 169v71q0 45 -26 73t-69 28t-68.5 -28t-25.5 -73v-71q0 -46 25.5 -73.5t68.5 -27.5t69 27.5t26 73.5z" />
    <glyph glyph-name="nine" unicode="9" horiz-adv-x="491" 
d="M241 766q81 0 130 -51t49 -134v-412q0 -83 -49 -134t-130 -51t-130 51t-49 134v27h84v-27q0 -46 26 -73.5t69 -27.5t69 27.5t26 73.5v122q-36 -41 -99 -41q-78 0 -126.5 51t-48.5 134v146q0 83 49 134t130 51zM245 334q42 0 66.5 27.5t24.5 73.5v146q0 46 -26 73.5
t-69 27.5t-69 -27.5t-26 -73.5v-146q0 -45 27 -73t72 -28z" />
    <glyph glyph-name="colon" unicode=":" horiz-adv-x="276" 
d="M96 329h84v-215h-84v215z" />
    <glyph glyph-name="semicolon" unicode=";" horiz-adv-x="274" 
d="M185 329l-9 -89h9l-26 -158h-84l16 97h-1l14 150h81z" />
    <glyph glyph-name="less" unicode="&#x3c;" horiz-adv-x="432" 
d="M371 0l-329 234v63l329 232v-88l-243 -176l243 -177v-88z" />
    <glyph glyph-name="equal" unicode="=" horiz-adv-x="544" 
d="M103 330v84h338v-84h-338zM103 130v84h338v-84h-338z" />
    <glyph glyph-name="greater" unicode="&#x3e;" horiz-adv-x="432" 
d="M60 0v88l242 177l-242 176v88l328 -232v-63z" />
    <glyph glyph-name="question" unicode="?" horiz-adv-x="437" 
d="M163 173v35q0 43 15 80.5t36 63.5l42 50t36 50.5t15 54.5v74q0 46 -25.5 73.5t-68.5 27.5t-69 -27.5t-26 -73.5v-27h-84v27q0 83 49 134t130 51t129.5 -51t48.5 -134v-74q0 -35 -15 -67.5t-36 -58.5l-42 -51.5t-36 -57t-15 -64.5v-35h-84zM163 0v127h84v-127h-84z" />
    <glyph glyph-name="at" unicode="@" horiz-adv-x="682" 
d="M340 763q117 0 188 -71t71 -188v-504h-80v38q-17 -23 -47.5 -37t-63.5 -14q-66 0 -107 46.5t-41 122.5v155q0 76 41.5 122.5t109.5 46.5q33 0 62.5 -13.5t45.5 -34.5v72q0 81 -49 130t-131 49q-78 0 -126.5 -49t-48.5 -130v-432q0 -72 43.5 -116t115.5 -44h206v-81h-206
q-108 0 -174 66.5t-66 174.5v432q0 117 70.5 188t186.5 71zM426 63q42 0 67.5 25.5t25.5 67.5v155q0 41 -25.5 66.5t-67.5 25.5q-38 0 -61.5 -25.5t-23.5 -66.5v-155q0 -42 23.5 -67.5t61.5 -25.5z" />
    <glyph glyph-name="A" unicode="A" horiz-adv-x="459" 
d="M275 750l159 -750h-87l-29 145h-176l-30 -145h-87l160 750h90zM157 229h146l-73 371z" />
    <glyph glyph-name="B" unicode="B" horiz-adv-x="509" 
d="M390 388q57 -49 57 -135v-81q0 -77 -45.5 -124.5t-120.5 -47.5h-195v750h185q75 0 120.5 -47.5t45.5 -124.5v-64q0 -77 -47 -126zM170 666v-241h101q37 0 59.5 24.5t22.5 64.5v64q0 40 -22.5 64t-59.5 24h-101zM363 172v81q0 40 -22.5 64t-59.5 24h-111v-257h111
q37 0 59.5 24t22.5 64z" />
    <glyph glyph-name="C" unicode="C" horiz-adv-x="476" 
d="M432 196v-27q0 -83 -49 -134t-130 -51t-129.5 51t-48.5 134v412q0 83 48.5 134t129.5 51t130 -51t49 -134v-27h-84v27q0 46 -26 73.5t-69 27.5t-68.5 -27.5t-25.5 -73.5v-412q0 -46 25.5 -73.5t68.5 -27.5t69 27.5t26 73.5v27h84z" />
    <glyph glyph-name="D" unicode="D" horiz-adv-x="507" 
d="M86 0v750h172q81 0 130 -51t49 -134v-380q0 -83 -49 -134t-130 -51h-172zM170 84h88q43 0 69 27.5t26 73.5v380q0 46 -26 73.5t-69 27.5h-88v-582z" />
    <glyph glyph-name="E" unicode="E" horiz-adv-x="431" 
d="M389 750v-84h-219v-246h192v-84h-192v-252h219v-84h-303v750h303z" />
    <glyph glyph-name="F" unicode="F" horiz-adv-x="417" 
d="M86 0v750h303v-84h-219v-297h192v-84h-192v-285h-84z" />
    <glyph glyph-name="G" unicode="G" horiz-adv-x="494" 
d="M253 -16q-81 0 -129.5 51t-48.5 134v412q0 83 48.5 134t129.5 51t130 -51t49 -134v-27h-84v27q0 46 -26 73.5t-69 27.5t-68.5 -27.5t-25.5 -73.5v-412q0 -46 25.5 -73.5t68.5 -27.5t69 27.5t26 73.5v109h-95v84h179v-193q0 -83 -49 -134t-130 -51z" />
    <glyph glyph-name="H" unicode="H" horiz-adv-x="515" 
d="M86 0v750h84v-381h175v381h84v-750h-84v285h-175v-285h-84z" />
    <glyph glyph-name="I" unicode="I" horiz-adv-x="256" 
d="M170 0h-84v750h84v-750z" />
    <glyph glyph-name="J" unicode="J" horiz-adv-x="328" 
d="M17 -6v84h53q43 0 69 27.5t26 73.5v571h84v-571q0 -83 -49 -134t-130 -51h-53z" />
    <glyph glyph-name="K" unicode="K" horiz-adv-x="492" 
d="M264 469l206 -469h-91l-172 385l-37 -54v-331h-84v750h84v-281l195 281h90z" />
    <glyph glyph-name="L" unicode="L" horiz-adv-x="389" 
d="M170 750v-666h199v-84h-283v750h84z" />
    <glyph glyph-name="M" unicode="M" horiz-adv-x="652" 
d="M482 750h84v-750h-80v488l-129 -488h-63l-128 488v-488h-80v750h84l156 -596z" />
    <glyph glyph-name="N" unicode="N" horiz-adv-x="525" 
d="M359 750h80v-750h-71l-202 531v-531h-80v750h71l202 -531v531z" />
    <glyph glyph-name="O" unicode="O" horiz-adv-x="507" 
d="M253 -16q-81 0 -129.5 51t-48.5 134v412q0 83 48.5 134t129.5 51t130 -51t49 -134v-412q0 -83 -49 -134t-130 -51zM253 68q43 0 69 27.5t26 73.5v412q0 46 -26 73.5t-69 27.5t-68.5 -27.5t-25.5 -73.5v-412q0 -46 25.5 -73.5t68.5 -27.5z" />
    <glyph glyph-name="P" unicode="P" horiz-adv-x="474" 
d="M86 0v750h185q75 0 120.5 -47.5t45.5 -124.5v-84q0 -78 -45.5 -125.5t-120.5 -47.5h-101v-321h-84zM170 405h101q37 0 59.5 24.5t22.5 64.5v84q0 40 -22.5 64t-59.5 24h-101v-261z" />
    <glyph glyph-name="Q" unicode="Q" horiz-adv-x="507" 
d="M432 169q0 -96 -64 -148l34 -112h-85l-24 79q-17 -4 -40 -4q-81 0 -129.5 51t-48.5 134v412q0 83 48.5 134t129.5 51t130 -51t49 -134v-412zM308 219l30 -99q10 20 10 49v412q0 46 -26 73.5t-69 27.5t-68.5 -27.5t-25.5 -73.5v-412q0 -46 25.5 -73.5t68.5 -27.5
q10 0 15 1l-46 150h86z" />
    <glyph glyph-name="R" unicode="R" horiz-adv-x="510" 
d="M437 474q0 -91 -61 -139q61 -38 61 -115v-220h-84v220q0 37 -22.5 59t-59.5 22h-101v-301h-84v750h185q75 0 120.5 -47.5t45.5 -124.5v-104zM271 385q37 0 59.5 24.5t22.5 64.5v104q0 40 -22.5 64t-59.5 24h-101v-281h101z" />
    <glyph glyph-name="S" unicode="S" horiz-adv-x="471" 
d="M236 -16q-81 0 -130 51t-49 134v27h84v-27q0 -46 26 -73.5t69 -27.5t69 27.5t26 73.5v59q0 46 -26 73.5t-69 27.5q-81 0 -130 51t-49 134v67q0 83 49 134t130 51t130 -51t49 -134v-27h-84v27q0 46 -26 73.5t-69 27.5t-69 -27.5t-26 -73.5v-67q0 -45 26 -73t69 -28
q81 0 130 -51t49 -134v-59q0 -83 -49 -134t-130 -51z" />
    <glyph glyph-name="T" unicode="T" horiz-adv-x="371" 
d="M144 0v666h-126v84h336v-84h-126v-666h-84z" />
    <glyph glyph-name="U" unicode="U" horiz-adv-x="519" 
d="M438 750v-581q0 -83 -49 -134t-130 -51t-129.5 51t-48.5 134v581h84v-581q0 -46 25.5 -73.5t68.5 -27.5t69 27.5t26 73.5v581h84z" />
    <glyph glyph-name="V" unicode="V" horiz-adv-x="459" 
d="M347 750h87l-159 -750h-90l-160 750h87l118 -580z" />
    <glyph glyph-name="W" unicode="W" horiz-adv-x="654" 
d="M531 750h86l-103 -750h-90l-96 519l-98 -519h-90l-103 750h86l72 -561l95 561h74l95 -561z" />
    <glyph glyph-name="X" unicode="X" horiz-adv-x="457" 
d="M432 750l-160 -374l160 -376h-87l-116 271l-117 -271h-87l160 376l-160 374h87l117 -270l116 270h87z" />
    <glyph glyph-name="Y" unicode="Y" 
d="M369 750h86l-178 -372v-378h-84v378l-179 372h86l135 -285z" />
    <glyph glyph-name="Z" unicode="Z" horiz-adv-x="422" 
d="M388 750v-64l-263 -602h263v-84h-353v64l262 602h-262v84h353z" />
    <glyph glyph-name="bracketleft" unicode="[" horiz-adv-x="340" 
d="M82 -180v960h236v-84h-152v-792h152v-84h-236z" />
    <glyph glyph-name="backslash" unicode="\" horiz-adv-x="355" 
d="M344 -50h-87l-268 830h87z" />
    <glyph glyph-name="bracketright" unicode="]" horiz-adv-x="340" 
d="M22 -180v84h152v792h-152v84h236v-960h-236z" />
    <glyph glyph-name="asciicircum" unicode="^" horiz-adv-x="440" 
d="M45 498l145 252h63l142 -252h-81l-93 172l-94 -172h-82z" />
    <glyph glyph-name="underscore" unicode="_" horiz-adv-x="559" 
d="M96 -104v84h367v-84h-367z" />
    <glyph glyph-name="grave" unicode="`" horiz-adv-x="213" 
d="M115 608l-90 172h86l66 -172h-62z" />
    <glyph glyph-name="a" unicode="a" horiz-adv-x="452" 
d="M218 556q77 0 125 -49t48 -128v-379h-80v39q-40 -51 -120 -51q-73 0 -113.5 40.5t-40.5 106.5q0 94 97 135q22 9 75.5 23t77.5 30t24 47v12q0 42 -25.5 68t-67.5 26t-66 -26t-24 -68v-17h-81v14q0 79 47 128t124 49zM209 64q48 0 75 27t27 76v93q-22 -15 -71.5 -27.5
t-57.5 -15.5q-65 -23 -65 -75q0 -35 24.5 -56.5t67.5 -21.5z" />
    <glyph glyph-name="b" unicode="b" horiz-adv-x="468" 
d="M256 556q69 0 112.5 -45t43.5 -129v-220q0 -84 -43.5 -129t-112.5 -45q-68 0 -106 46v-34h-81v750h81v-240q38 46 106 46zM331 162v220q0 43 -24.5 68.5t-66.5 25.5q-43 0 -66.5 -25.5t-23.5 -68.5v-221q0 -43 23.5 -68t66.5 -25q42 0 66.5 25.5t24.5 68.5z" />
    <glyph glyph-name="c" unicode="c" horiz-adv-x="433" 
d="M397 176v-10q0 -80 -47 -129t-124 -49t-125 49t-48 129v213q0 79 48 128t125 49t124 -49t47 -128v-10h-81v13q0 42 -24 68t-66 26t-67 -26t-25 -68v-220q0 -42 25 -68t67 -26t66 26t24 68v14h81z" />
    <glyph glyph-name="d" unicode="d" horiz-adv-x="468" 
d="M318 750h80v-750h-80v34q-40 -46 -106 -46q-69 0 -112.5 45t-43.5 129v220q0 84 43.5 129t112.5 45q67 0 106 -47v241zM227 68q43 0 67 25t24 68v221q0 43 -24 68.5t-67 25.5q-42 0 -66.5 -26t-24.5 -68v-220q0 -42 24.5 -68t66.5 -26z" />
    <glyph glyph-name="e" unicode="e" horiz-adv-x="447" 
d="M397 258h-263v-96q0 -42 25 -68t67 -26t66 26t24 68v14h81v-10q0 -80 -47 -129t-124 -49t-125 49t-48 129v213q0 79 48 128t125 49t124 -49t47 -128v-121zM226 476q-42 0 -67 -26t-25 -68v-48h182v48q0 42 -24 68t-66 26z" />
    <glyph glyph-name="f" unicode="f" horiz-adv-x="322" 
d="M105 0v468h-101v76h101v35q0 80 47.5 130.5t125.5 50.5h40v-80h-40q-42 0 -67.5 -28t-25.5 -73v-35h133v-76h-133v-468h-80z" />
    <glyph glyph-name="g" unicode="g" horiz-adv-x="458" 
d="M309 544h80v-550q0 -79 -47.5 -128t-124.5 -49t-124 49t-47 129v14h80v-18q0 -42 24.5 -68t66.5 -26t67 26t25 68v113q-40 -46 -107 -46q-68 0 -111.5 45t-43.5 129v150q0 84 43.5 129t111.5 45t107 -47v35zM218 138q43 0 67 25t24 68v151q0 43 -24 68.5t-67 25.5
q-42 0 -66.5 -26t-24.5 -68v-150q0 -42 24.5 -68t66.5 -26z" />
    <glyph glyph-name="h" unicode="h" horiz-adv-x="470" 
d="M258 557q65 0 106.5 -43t41.5 -120v-394h-80v383q0 42 -24 67.5t-64 25.5t-64 -25.5t-24 -67.5v-383h-81v750h81v-241q39 48 108 48z" />
    <glyph glyph-name="i" unicode="i" horiz-adv-x="219" 
d="M69 601v119h81v-119h-81zM69 0v544h81v-544h-81z" />
    <glyph glyph-name="j" unicode="j" horiz-adv-x="219" 
d="M69 601v119h81v-119h-81zM-54 -183v80h32q41 0 66 28t25 73v546h81v-542q0 -83 -47 -134t-125 -51h-32z" />
    <glyph glyph-name="k" unicode="k" horiz-adv-x="429" 
d="M252 358l174 -358h-85l-142 288l-49 -64v-224h-81v750h81v-406l160 200h86z" />
    <glyph glyph-name="l" unicode="l" horiz-adv-x="219" 
d="M69 0v750h81v-750h-81z" />
    <glyph glyph-name="m" unicode="m" horiz-adv-x="727" 
d="M515 556q65 0 106.5 -42.5t41.5 -120.5v-393h-80v382q0 42 -24 68t-64 26t-64.5 -26t-24.5 -68v-382h-80v382q0 42 -24 68t-64 26t-64 -26t-24 -68v-382h-81v544h81v-36q39 48 108 48q94 0 130 -77q38 77 127 77z" />
    <glyph glyph-name="n" unicode="n" 
d="M258 556q68 0 108 -47t40 -127v-382h-80v382q0 42 -24 68t-64 26t-64 -26t-24 -68v-382h-81v544h81v-37q38 49 108 49z" />
    <glyph glyph-name="o" unicode="o" horiz-adv-x="451" 
d="M226 -12q-77 0 -125 49t-48 129v213q0 79 48 128t125 49t124 -49t47 -128v-213q0 -80 -47 -129t-124 -49zM226 68q42 0 66 26t24 68v220q0 42 -24 68t-66 26t-67 -26t-25 -68v-220q0 -42 25 -68t67 -26z" />
    <glyph glyph-name="p" unicode="p" horiz-adv-x="467" 
d="M256 556q69 0 112.5 -45t43.5 -129v-220q0 -84 -43.5 -129t-112.5 -45q-68 0 -106 46v-214h-81v724h81v-34q38 46 106 46zM331 162v220q0 43 -24.5 68.5t-66.5 25.5q-43 0 -66.5 -25.5t-23.5 -68.5v-221q0 -43 23.5 -68t66.5 -25q42 0 66.5 25.5t24.5 68.5z" />
    <glyph glyph-name="q" unicode="q" horiz-adv-x="467" 
d="M317 544h81v-720h-81v210q-38 -46 -106 -46q-69 0 -112.5 45t-43.5 129v220q0 84 43.5 129t112.5 45q68 0 106 -46v34zM227 68q43 0 66.5 25t23.5 68v221q0 43 -23.5 68.5t-66.5 25.5q-42 0 -66.5 -25.5t-24.5 -68.5v-220q0 -43 24.5 -68.5t66.5 -25.5z" />
    <glyph glyph-name="r" unicode="r" horiz-adv-x="285" 
d="M258 550h24v-80h-44q-41 0 -64.5 -24.5t-23.5 -67.5v-378h-81v544h81v-42q38 48 108 48z" />
    <glyph glyph-name="s" unicode="s" horiz-adv-x="423" 
d="M214 -12q-77 0 -124 45.5t-47 120.5v17h81v-21q0 -37 25 -59.5t65 -22.5q39 0 62.5 23t23.5 59q0 37 -24 60.5t-63 23.5q-77 0 -123.5 44t-46.5 116q0 73 46.5 117.5t123.5 44.5q76 0 122 -45.5t46 -120.5v-16h-81v20q0 37 -23.5 59.5t-63.5 22.5q-41 0 -65 -23t-24 -59
q0 -38 24 -61t65 -23q76 0 122 -44t46 -116q0 -73 -45.5 -117.5t-121.5 -44.5z" />
    <glyph glyph-name="t" unicode="t" horiz-adv-x="334" 
d="M273 -6q-78 0 -125 48.5t-47 131.5v295h-96v75h96v136h80v-136h131v-75h-131v-295q0 -45 25 -72.5t67 -27.5h39v-80h-39z" />
    <glyph glyph-name="u" unicode="u" 
d="M320 544h80v-544h-80v36q-39 -48 -108 -48q-67 0 -108 44t-41 129v383h80v-383q0 -42 24 -67.5t64 -25.5t64.5 25.5t24.5 67.5v383z" />
    <glyph glyph-name="v" unicode="v" horiz-adv-x="419" 
d="M324 544h86l-151 -544h-97l-153 544h86l115 -423z" />
    <glyph glyph-name="w" unicode="w" horiz-adv-x="559" 
d="M450 544h84l-88 -544h-89l-77 372l-78 -372h-89l-88 544h83l54 -416l80 416h75l80 -416z" />
    <glyph glyph-name="x" unicode="x" horiz-adv-x="396" 
d="M387 544l-148 -272l148 -272h-86l-103 189l-103 -189h-85l148 272l-148 272h85l103 -188l103 188h86z" />
    <glyph glyph-name="y" unicode="y" horiz-adv-x="419" 
d="M322 544h88l-207 -724h-86l49 170l-157 554h88l113 -414z" />
    <glyph glyph-name="z" unicode="z" horiz-adv-x="382" 
d="M358 544v-63l-232 -401h226v-80h-328v63l236 400h-231v81h329z" />
    <glyph glyph-name="braceleft" unicode="{" horiz-adv-x="378" 
d="M299 -180q-81 0 -130 51t-49 134v192q0 28 -15 45t-40 17h-50v84h50q25 0 40 16.5t15 44.5v191q0 83 49 134t130 51h57v-84h-57q-43 0 -69 -27.5t-26 -73.5v-191q0 -66 -45 -103q45 -39 45 -104v-192q0 -46 26 -73.5t69 -27.5h57v-84h-57z" />
    <glyph glyph-name="bar" unicode="|" horiz-adv-x="291" 
d="M187 -150h-84v930h84v-930z" />
    <glyph glyph-name="braceright" unicode="}" horiz-adv-x="378" 
d="M22 -180v84h58q43 0 68.5 27.5t25.5 73.5v192q0 65 45 104q-45 37 -45 103v191q0 46 -25.5 73.5t-68.5 27.5h-58v84h58q81 0 129.5 -51t48.5 -134v-191q0 -28 15.5 -44.5t40.5 -16.5h50v-84h-50q-25 0 -40.5 -17t-15.5 -45v-192q0 -83 -48.5 -134t-129.5 -51h-58z" />
    <glyph glyph-name="asciitilde" unicode="~" horiz-adv-x="569" 
d="M87 198v21q0 54 30 84.5t84 30.5q35 0 64.5 -15t52.5 -30t43 -15q40 0 40 42v21h79v-26q0 -52 -27 -82t-73 -30q-40 0 -90 32t-75 32q-22 0 -35.5 -13t-13.5 -35v-17h-79z" />
    <glyph glyph-name="uni00A0" unicode="&#xa0;" horiz-adv-x="218" 
 />
    <glyph glyph-name="exclamdown" unicode="&#xa1;" horiz-adv-x="276" 
d="M96 394v150h84v-150h-84zM96 -206v540h84v-540h-84z" />
    <glyph glyph-name="cent" unicode="&#xa2;" horiz-adv-x="484" 
d="M420 369h-81v13q0 35 -17 59.5t-48 31.5v-402q31 7 48 31.5t17 59.5v14h81v-10q0 -73 -40 -121t-106 -56v-89h-55v90q-65 10 -104 57.5t-39 118.5v213q0 71 39 118t104 57v90h55v-89q66 -8 106 -56t40 -120v-10zM157 162q0 -34 16.5 -58t45.5 -32v400q-29 -8 -45.5 -32
t-16.5 -58v-220z" />
    <glyph glyph-name="sterling" unicode="&#xa3;" horiz-adv-x="540" 
d="M489 551h-84v27q0 46 -26 73.5t-69 27.5t-69 -27.5t-26 -73.5v-164h139v-77h-139v-260h220v-77h-375v77h71v260h-71v77h71v164q0 83 49 134t130 51t130 -51t49 -134v-27z" />
    <glyph glyph-name="currency" unicode="&#xa4;" horiz-adv-x="561" 
d="M116 69l-43 44l67 67q-28 41 -28 97t28 96l-67 66l43 44l68 -67q40 29 96 29q57 0 97 -28l65 66l44 -44l-65 -65q27 -41 27 -97q0 -57 -28 -97l66 -67l-44 -44l-66 68q-38 -28 -96 -28q-56 0 -96 28zM280 180q41 0 69 27t28 70t-28 70t-69 27t-69 -27t-28 -70t28 -70
t69 -27z" />
    <glyph glyph-name="yen" unicode="&#xa5;" horiz-adv-x="520" 
d="M481 750l-176 -367h102v-77h-104v-108h104v-76h-104v-122h-84v122h-106v76h106v108h-106v77h104l-178 367h87l135 -273l133 273h87z" />
    <glyph glyph-name="brokenbar" unicode="&#xa6;" horiz-adv-x="291" 
d="M187 415h-84v365h84v-365zM187 -150h-84v365h84v-365z" />
    <glyph glyph-name="section" unicode="&#xa7;" horiz-adv-x="495" 
d="M251 -48q-77 0 -124 51t-47 134v10h80v-14q0 -45 25 -72.5t66 -27.5q39 0 62.5 22.5t23.5 59.5t-24 60t-64 23q-76 0 -122.5 44.5t-46.5 116.5q0 35 14.5 67.5t38.5 52.5q-25 19 -40.5 53t-15.5 69q0 73 46 117.5t121 44.5q77 0 124 -51t47 -134v-10h-80v15
q0 45 -25 72.5t-66 27.5q-39 0 -63 -22.5t-24 -59.5t24.5 -60t64.5 -24q76 0 122.5 -44t46.5 -116q0 -35 -14.5 -67.5t-38.5 -53.5q25 -19 40.5 -52.5t15.5 -68.5q0 -73 -46 -118t-121 -45zM249 275q39 0 62.5 22.5t23.5 59.5q0 38 -24.5 61t-64.5 23q-38 0 -62 -22.5
t-24 -59.5q0 -38 24 -61t65 -23z" />
    <glyph glyph-name="dieresis" unicode="&#xa8;" horiz-adv-x="352" 
d="M69 663v117h72v-117h-72zM212 663v117h71v-117h-71z" />
    <glyph glyph-name="copyright" unicode="&#xa9;" horiz-adv-x="841" 
d="M420 -13q-162 0 -261 107t-99 282t99 281t261 106q163 0 262 -104.5t99 -275.5q0 -179 -99 -287.5t-262 -108.5zM420 46q136 0 219 93t83 244q0 144 -83 232.5t-219 88.5q-135 0 -218 -90t-83 -238t83 -239t218 -91zM420 141q-49 0 -78.5 30.5t-29.5 80.5v246
q0 50 29.5 80.5t78.5 30.5t78.5 -30.5t29.5 -80.5v-19h-59v19q0 23 -13.5 37t-35.5 14t-35.5 -14t-13.5 -37v-246q0 -23 13.5 -37t35.5 -14t35.5 14t13.5 37v19h59v-19q0 -50 -29.5 -80.5t-78.5 -30.5z" />
    <glyph glyph-name="ordfeminine" unicode="&#xaa;" horiz-adv-x="363" 
d="M177 760q47 0 75.5 -30t28.5 -78v-227h-56v20q-24 -27 -68 -27q-42 0 -66 24.5t-24 64.5q0 56 57 81q13 6 43.5 15t44 18t13.5 27v8q0 21 -13 34.5t-35 13.5q-21 0 -34 -13.5t-13 -34.5v-13h-57v9q0 49 28.5 78.5t75.5 29.5zM172 470q24 0 38.5 14t14.5 40v53
q-11 -8 -37.5 -15.5t-29.5 -8.5q-34 -14 -34 -41q0 -18 13 -30t35 -12z" />
    <glyph glyph-name="guillemotleft" unicode="&#xab;" horiz-adv-x="542" 
d="M246 0l-223 220v48l223 220v-98l-143 -146l143 -146v-98zM494 0l-223 220v48l223 220v-98l-143 -146l143 -146v-98z" />
    <glyph glyph-name="logicalnot" unicode="&#xac;" horiz-adv-x="562" 
d="M375 114v116h-304v84h388v-200h-84z" />
    <glyph glyph-name="uni00AD" unicode="&#xad;" horiz-adv-x="426" 
d="M74 230v84h287v-84h-287z" />
    <glyph glyph-name="registered" unicode="&#xae;" horiz-adv-x="841" 
d="M420 -13q-162 0 -261 107t-99 282t99 281t261 106q163 0 262 -104.5t99 -275.5q0 -179 -99 -287.5t-262 -108.5zM420 46q136 0 219 93t83 244q0 144 -83 232.5t-219 88.5q-135 0 -218 -90t-83 -238t83 -239t218 -91zM313 150v450h111q47 0 75 -29t28 -77v-65
q0 -53 -35 -82q35 -23 35 -67v-130h-59v130q0 20 -12 31.5t-32 11.5h-51v-173h-60zM373 383h51q20 0 32 13t12 33v65q0 21 -12 34t-32 13h-51v-158z" />
    <glyph glyph-name="macron" unicode="&#xaf;" horiz-adv-x="360" 
d="M69 750h221v-63h-221v63z" />
    <glyph glyph-name="degree" unicode="&#xb0;" horiz-adv-x="411" 
d="M204 511q-52 0 -88.5 35t-36.5 91t36.5 91t88.5 35q53 0 90 -35t37 -91t-37 -91t-90 -35zM204 570q27 0 47 19t20 48q0 30 -20 48.5t-47 18.5t-46.5 -18.5t-19.5 -48.5q0 -29 20 -48t46 -19z" />
    <glyph glyph-name="plusminus" unicode="&#xb1;" horiz-adv-x="521" 
d="M303 372h151v-84h-151v-131h-84v131h-152v84h152v132h84v-132zM67 0v84h387v-84h-387z" />
    <glyph glyph-name="uni00B2" unicode="&#xb2;" horiz-adv-x="283" 
d="M31 330v53q0 38 16 70t39.5 53.5t46.5 40.5t39 40t16 43v49q0 23 -13.5 37.5t-35.5 14.5t-35 -14.5t-13 -37.5v-19h-60v19q0 49 30 80t78 31q49 0 79 -30.5t30 -80.5v-49q0 -30 -16 -57t-38.5 -47l-45 -39.5t-38.5 -42.5t-16 -48v-6h154v-60h-217z" />
    <glyph glyph-name="uni00B3" unicode="&#xb3;" horiz-adv-x="294" 
d="M138 320q-49 0 -79 30.5t-30 80.5v19h60v-19q0 -23 13.5 -37t35.5 -14t35.5 14t13.5 37v49q0 23 -13.5 37t-35.5 14h-40v60h40q22 0 35.5 14t13.5 37v37q0 23 -13.5 37.5t-35.5 14.5t-35.5 -14.5t-13.5 -37.5v-19h-60v19q0 50 30 80.5t79 30.5t78.5 -30.5t29.5 -80.5v-37
q0 -52 -33 -81q33 -30 33 -81v-49q0 -50 -29.5 -80.5t-78.5 -30.5z" />
    <glyph glyph-name="acute" unicode="&#xb4;" horiz-adv-x="213" 
d="M36 608l66 172h85l-89 -172h-62z" />
    <glyph glyph-name="uni00B5" unicode="&#xb5;" horiz-adv-x="533" 
d="M362 544h80v-544h-80v37q-40 -49 -108 -49q-38 0 -70 15v-153h-81v694h81v-376q0 -46 23.5 -73t65.5 -27t65.5 27t23.5 73v376z" />
    <glyph glyph-name="paragraph" unicode="&#xb6;" horiz-adv-x="460" 
d="M357 -150h-84v529h-63q-75 0 -120.5 47.5t-45.5 124.5v27q0 77 45.5 124.5t120.5 47.5h147v-900z" />
    <glyph glyph-name="periodcentered" unicode="&#xb7;" horiz-adv-x="269" 
d="M96 212v120h77v-120h-77z" />
    <glyph glyph-name="cedilla" unicode="&#xb8;" horiz-adv-x="264" 
d="M124 -47q45 5 73.5 -21t28.5 -64q0 -42 -27 -67.5t-71 -25.5h-68v61h68q16 0 26 9t10 23t-10 23.5t-26 9.5h-38l-28 18v100h62v-66z" />
    <glyph glyph-name="uni00B9" unicode="&#xb9;" horiz-adv-x="196" 
d="M77 330v345h-65v59h15q23 0 36.5 12t13.5 33v7h59v-456h-59z" />
    <glyph glyph-name="ordmasculine" unicode="&#xba;" horiz-adv-x="346" 
d="M173 418q-46 0 -75 30t-29 78v126q0 49 28.5 78.5t75.5 29.5q46 0 74.5 -29.5t28.5 -78.5v-126q0 -49 -28.5 -78.5t-74.5 -29.5zM173 474q22 0 34.5 13t12.5 35v134q0 21 -13 34.5t-34 13.5t-34 -13.5t-13 -34.5v-134q0 -21 13 -34.5t34 -13.5z" />
    <glyph glyph-name="guillemotright" unicode="&#xbb;" horiz-adv-x="542" 
d="M48 0v98l143 146l-143 146v98l223 -220v-48zM295 0v98l144 146l-144 146v98l223 -220v-48z" />
    <glyph glyph-name="onequarter" unicode="&#xbc;" horiz-adv-x="700" 
d="M77 300v345h-65v59h15q23 0 36.5 12t13.5 33v7h59v-456h-59zM100 0l329 750h71l-329 -750h-71zM574 0v89h-161v54l165 307h55v-301h39v-60h-39v-89h-59zM475 149h99v188z" />
    <glyph glyph-name="onehalf" unicode="&#xbd;" horiz-adv-x="687" 
d="M77 300v345h-65v59h15q23 0 36.5 12t13.5 33v7h59v-456h-59zM100 0l329 750h71l-329 -750h-71zM435 0v53q0 38 16 70t39.5 53.5t46.5 40.5t39 40t16 43v49q0 23 -13.5 37.5t-35.5 14.5t-35 -14.5t-13 -37.5v-19h-60v19q0 49 30 80t78 31q49 0 79 -30.5t30 -80.5v-49
q0 -30 -16 -57t-38.5 -47l-45 -39.5t-38.5 -42.5t-16 -48v-6h154v-60h-217z" />
    <glyph glyph-name="threequarters" unicode="&#xbe;" horiz-adv-x="798" 
d="M138 290q-49 0 -79 30.5t-30 80.5v19h60v-19q0 -23 13.5 -37t35.5 -14t35.5 14t13.5 37v49q0 23 -13.5 37t-35.5 14h-40v60h40q22 0 35.5 14t13.5 37v37q0 23 -13.5 37.5t-35.5 14.5t-35.5 -14.5t-13.5 -37.5v-19h-60v19q0 50 30 80.5t79 30.5t78.5 -30.5t29.5 -80.5v-37
q0 -52 -33 -81q33 -30 33 -81v-49q0 -50 -29.5 -80.5t-78.5 -30.5zM198 0l329 750h71l-329 -750h-71zM672 0v89h-161v54l165 307h55v-301h39v-60h-39v-89h-59zM573 149h99v188z" />
    <glyph glyph-name="questiondown" unicode="&#xbf;" horiz-adv-x="437" 
d="M274 544v-128h-84v128h84zM274 370v-34q0 -43 -15 -80.5t-36 -64t-42 -50t-36 -50.5t-15 -55v-73q0 -46 25.5 -73.5t68.5 -27.5t69 27.5t26 73.5v27h84v-27q0 -83 -49 -134t-130 -51q-80 0 -129 51t-49 134v73q0 42 22.5 83t49.5 69t49.5 68t22.5 80v34h84z" />
    <glyph glyph-name="Agrave" unicode="&#xc0;" horiz-adv-x="459" 
d="M263 814h-62l-90 172h86zM275 750l159 -750h-87l-29 145h-176l-30 -145h-87l160 750h90zM157 229h146l-73 371z" />
    <glyph glyph-name="Aacute" unicode="&#xc1;" horiz-adv-x="459" 
d="M349 986l-89 -172h-62l66 172h85zM275 750l159 -750h-87l-29 145h-176l-30 -145h-87l160 750h90zM157 229h146l-73 371z" />
    <glyph glyph-name="Acircumflex" unicode="&#xc2;" horiz-adv-x="459" 
d="M230 932l-67 -92h-79l112 146h67l112 -146h-79zM275 750l159 -750h-87l-29 145h-176l-30 -145h-87l160 750h90zM157 229h146l-73 371z" />
    <glyph glyph-name="Atilde" unicode="&#xc3;" horiz-adv-x="459" 
d="M163 859v-19h-65v23q0 37 18 56.5t47 19.5q34 0 68 -25q31 -25 44 -25q19 0 19 27v21h64v-27q0 -36 -18 -55.5t-47 -19.5q-32 0 -66 24l-12.5 9.5l-12 9t-9.5 5t-11 2.5q-19 0 -19 -26zM275 750l159 -750h-87l-29 145h-176l-30 -145h-87l160 750h90zM157 229h146l-73 371
z" />
    <glyph glyph-name="Adieresis" unicode="&#xc4;" horiz-adv-x="459" 
d="M197 986v-117h-72v117h72zM339 986v-117h-71v117h71zM275 750l159 -750h-87l-29 145h-176l-30 -145h-87l160 750h90zM157 229h146l-73 371z" />
    <glyph glyph-name="Aring" unicode="&#xc5;" horiz-adv-x="459" 
d="M230 779q-39 0 -66.5 26.5t-27.5 67.5t27.5 67.5t66.5 26.5t66.5 -26.5t27.5 -67.5t-27.5 -67.5t-66.5 -26.5zM230 914q-16 0 -28.5 -11.5t-12.5 -29.5t12.5 -29.5t28.5 -11.5q17 0 29.5 11.5t12.5 29.5t-12.5 29.5t-29.5 11.5zM275 750l159 -750h-87l-29 145h-176
l-30 -145h-87l160 750h90zM157 229h146l-73 371z" />
    <glyph glyph-name="AE" unicode="&#xc6;" horiz-adv-x="648" 
d="M25 0l160 750h421v-84h-221v-246h194v-84h-194v-252h221v-84h-305v145h-159l-30 -145h-87zM158 229h143v437h-53z" />
    <glyph glyph-name="Ccedilla" unicode="&#xc7;" horiz-adv-x="476" 
d="M432 554h-84v27q0 46 -26 73.5t-69 27.5t-68.5 -27.5t-25.5 -73.5v-412q0 -46 25.5 -73.5t68.5 -27.5t69 27.5t26 73.5v27h84v-27q0 -74 -39 -122.5t-105 -59.5v-34q45 5 73.5 -21t28.5 -64q0 -42 -27 -67.5t-71 -25.5h-68v61h68q16 0 26 9t10 23t-10 23.5t-26 9.5h-38
l-28 18v67q-70 8 -110.5 57.5t-40.5 125.5v412q0 83 48.5 134t129.5 51t130 -51t49 -134v-27z" />
    <glyph glyph-name="Egrave" unicode="&#xc8;" horiz-adv-x="431" 
d="M183 814l-90 172h86l66 -172h-62zM389 750v-84h-219v-246h192v-84h-192v-252h219v-84h-303v750h303z" />
    <glyph glyph-name="Eacute" unicode="&#xc9;" horiz-adv-x="431" 
d="M180 814l66 172h85l-89 -172h-62zM389 750v-84h-219v-246h192v-84h-192v-252h219v-84h-303v750h303z" />
    <glyph glyph-name="Ecircumflex" unicode="&#xca;" horiz-adv-x="431" 
d="M66 840l112 146h67l112 -146h-79l-66 92l-67 -92h-79zM389 750v-84h-219v-246h192v-84h-192v-252h219v-84h-303v750h303z" />
    <glyph glyph-name="Edieresis" unicode="&#xcb;" horiz-adv-x="431" 
d="M107 869v117h72v-117h-72zM250 869v117h71v-117h-71zM389 750v-84h-219v-246h192v-84h-192v-252h219v-84h-303v750h303z" />
    <glyph glyph-name="Igrave" unicode="&#xcc;" horiz-adv-x="256" 
d="M99 814l-90 172h86l66 -172h-62zM170 0h-84v750h84v-750z" />
    <glyph glyph-name="Iacute" unicode="&#xcd;" horiz-adv-x="256" 
d="M96 814l66 172h85l-89 -172h-62zM170 0h-84v750h84v-750z" />
    <glyph glyph-name="Icircumflex" unicode="&#xce;" horiz-adv-x="256" 
d="M-18 840l112 146h67l112 -146h-79l-66 92l-67 -92h-79zM170 0h-84v750h84v-750z" />
    <glyph glyph-name="Idieresis" unicode="&#xcf;" horiz-adv-x="256" 
d="M23 869v117h72v-117h-72zM166 869v117h71v-117h-71zM170 0h-84v750h84v-750z" />
    <glyph glyph-name="Eth" unicode="&#xd0;" horiz-adv-x="507" 
d="M258 750q81 0 130 -51t49 -134v-380q0 -83 -49 -134t-130 -51h-172v340h-77v70h77v340h172zM353 185v380q0 46 -26 73.5t-69 27.5h-88v-256h76v-70h-76v-256h88q43 0 69 27.5t26 73.5z" />
    <glyph glyph-name="Ntilde" unicode="&#xd1;" horiz-adv-x="525" 
d="M196 859v-19h-65v23q0 37 18 56.5t47 19.5q34 0 68 -25q31 -25 44 -25q19 0 19 27v21h64v-27q0 -36 -18 -55.5t-47 -19.5q-32 0 -66 24l-12.5 9.5l-12 9t-9.5 5t-11 2.5q-19 0 -19 -26zM359 750h80v-750h-71l-202 531v-531h-80v750h71l202 -531v531z" />
    <glyph glyph-name="Ograve" unicode="&#xd2;" horiz-adv-x="507" 
d="M224 814l-90 172h86l66 -172h-62zM253 -16q-81 0 -129.5 51t-48.5 134v412q0 83 48.5 134t129.5 51t130 -51t49 -134v-412q0 -83 -49 -134t-130 -51zM253 68q43 0 69 27.5t26 73.5v412q0 46 -26 73.5t-69 27.5t-68.5 -27.5t-25.5 -73.5v-412q0 -46 25.5 -73.5t68.5 -27.5
z" />
    <glyph glyph-name="Oacute" unicode="&#xd3;" horiz-adv-x="507" 
d="M221 814l66 172h85l-89 -172h-62zM253 -16q-81 0 -129.5 51t-48.5 134v412q0 83 48.5 134t129.5 51t130 -51t49 -134v-412q0 -83 -49 -134t-130 -51zM253 68q43 0 69 27.5t26 73.5v412q0 46 -26 73.5t-69 27.5t-68.5 -27.5t-25.5 -73.5v-412q0 -46 25.5 -73.5t68.5 -27.5
z" />
    <glyph glyph-name="Ocircumflex" unicode="&#xd4;" horiz-adv-x="507" 
d="M107 840l112 146h67l112 -146h-79l-66 92l-67 -92h-79zM253 -16q-81 0 -129.5 51t-48.5 134v412q0 83 48.5 134t129.5 51t130 -51t49 -134v-412q0 -83 -49 -134t-130 -51zM253 68q43 0 69 27.5t26 73.5v412q0 46 -26 73.5t-69 27.5t-68.5 -27.5t-25.5 -73.5v-412
q0 -46 25.5 -73.5t68.5 -27.5z" />
    <glyph glyph-name="Otilde" unicode="&#xd5;" horiz-adv-x="507" 
d="M316 835q-32 0 -66 24l-12.5 9.5l-12 9t-9.5 5t-11 2.5q-19 0 -19 -26v-19h-65v23q0 37 18 56.5t47 19.5q34 0 68 -25q31 -25 44 -25q19 0 19 27v21h64v-27q0 -36 -18 -55.5t-47 -19.5zM253 -16q-81 0 -129.5 51t-48.5 134v412q0 83 48.5 134t129.5 51t130 -51t49 -134
v-412q0 -83 -49 -134t-130 -51zM253 68q43 0 69 27.5t26 73.5v412q0 46 -26 73.5t-69 27.5t-68.5 -27.5t-25.5 -73.5v-412q0 -46 25.5 -73.5t68.5 -27.5z" />
    <glyph glyph-name="Odieresis" unicode="&#xd6;" horiz-adv-x="507" 
d="M148 869v117h72v-117h-72zM291 869v117h71v-117h-71zM253 -16q-81 0 -129.5 51t-48.5 134v412q0 83 48.5 134t129.5 51t130 -51t49 -134v-412q0 -83 -49 -134t-130 -51zM253 68q43 0 69 27.5t26 73.5v412q0 46 -26 73.5t-69 27.5t-68.5 -27.5t-25.5 -73.5v-412
q0 -46 25.5 -73.5t68.5 -27.5z" />
    <glyph glyph-name="multiply" unicode="&#xd7;" horiz-adv-x="451" 
d="M393 166l-60 -59l-107 107l-108 -108l-59 60l108 107l-107 107l59 60l107 -107l107 106l59 -59l-106 -106z" />
    <glyph glyph-name="Oslash" unicode="&#xd8;" horiz-adv-x="507" 
d="M483 783l-63 -128q12 -33 12 -74v-412q0 -83 -49 -134t-130 -51q-84 0 -135 56l-36 -74h-58l63 129q-12 33 -12 74v412q0 83 48.5 134t129.5 51q85 0 136 -57l36 74h58zM159 581v-340l184 375q-18 66 -90 66q-43 0 -68.5 -27.5t-25.5 -73.5zM348 169v339l-184 -375
q9 -30 32.5 -47.5t56.5 -17.5q43 0 69 27.5t26 73.5z" />
    <glyph glyph-name="Ugrave" unicode="&#xd9;" horiz-adv-x="519" 
d="M231 814l-90 172h86l66 -172h-62zM438 750v-581q0 -83 -49 -134t-130 -51t-129.5 51t-48.5 134v581h84v-581q0 -46 25.5 -73.5t68.5 -27.5t69 27.5t26 73.5v581h84z" />
    <glyph glyph-name="Uacute" unicode="&#xda;" horiz-adv-x="519" 
d="M228 814l66 172h85l-89 -172h-62zM438 750v-581q0 -83 -49 -134t-130 -51t-129.5 51t-48.5 134v581h84v-581q0 -46 25.5 -73.5t68.5 -27.5t69 27.5t26 73.5v581h84z" />
    <glyph glyph-name="Ucircumflex" unicode="&#xdb;" horiz-adv-x="519" 
d="M114 840l112 146h67l112 -146h-79l-66 92l-67 -92h-79zM438 750v-581q0 -83 -49 -134t-130 -51t-129.5 51t-48.5 134v581h84v-581q0 -46 25.5 -73.5t68.5 -27.5t69 27.5t26 73.5v581h84z" />
    <glyph glyph-name="Udieresis" unicode="&#xdc;" horiz-adv-x="519" 
d="M155 869v117h72v-117h-72zM298 869v117h71v-117h-71zM438 750v-581q0 -83 -49 -134t-130 -51t-129.5 51t-48.5 134v581h84v-581q0 -46 25.5 -73.5t68.5 -27.5t69 27.5t26 73.5v581h84z" />
    <glyph glyph-name="Yacute" unicode="&#xdd;" 
d="M354 986l-89 -172h-62l66 172h85zM369 750h86l-178 -372v-378h-84v378l-179 372h86l135 -285z" />
    <glyph glyph-name="Thorn" unicode="&#xde;" horiz-adv-x="474" 
d="M86 0v750h84v-111h101q75 0 120.5 -47.5t45.5 -125.5v-84q0 -77 -45.5 -124.5t-120.5 -47.5h-101v-210h-84zM170 294h101q37 0 59.5 24t22.5 64v84q0 40 -22.5 64.5t-59.5 24.5h-101v-261z" />
    <glyph glyph-name="germandbls" unicode="&#xdf;" horiz-adv-x="494" 
d="M387 388q57 -49 57 -135v-86q0 -78 -45.5 -125t-120.5 -47h-51v84h51q37 0 59.5 24t22.5 64v86q0 40 -22.5 64t-59.5 24h-51v84h41q37 0 59.5 24.5t22.5 64.5v63q0 47 -27.5 76t-71.5 29t-71 -29t-27 -76v-697h-84v697q0 85 50 137t132 52q83 0 133 -52t50 -137v-63
q0 -76 -47 -126z" />
    <glyph glyph-name="agrave" unicode="&#xe0;" horiz-adv-x="452" 
d="M251 608h-62l-90 172h86zM218 556q77 0 125 -49t48 -128v-379h-80v39q-40 -51 -120 -51q-73 0 -113.5 40.5t-40.5 106.5q0 94 97 135q22 9 75.5 23t77.5 30t24 47v12q0 42 -25.5 68t-67.5 26t-66 -26t-24 -68v-17h-81v14q0 79 47 128t124 49zM209 64q48 0 75 27t27 76v93
q-22 -15 -71.5 -27.5t-57.5 -15.5q-65 -23 -65 -75q0 -35 24.5 -56.5t67.5 -21.5z" />
    <glyph glyph-name="aacute" unicode="&#xe1;" horiz-adv-x="452" 
d="M337 780l-89 -172h-62l66 172h85zM218 556q77 0 125 -49t48 -128v-379h-80v39q-40 -51 -120 -51q-73 0 -113.5 40.5t-40.5 106.5q0 94 97 135q22 9 75.5 23t77.5 30t24 47v12q0 42 -25.5 68t-67.5 26t-66 -26t-24 -68v-17h-81v14q0 79 47 128t124 49zM209 64q48 0 75 27
t27 76v93q-22 -15 -71.5 -27.5t-57.5 -15.5q-65 -23 -65 -75q0 -35 24.5 -56.5t67.5 -21.5z" />
    <glyph glyph-name="acircumflex" unicode="&#xe2;" horiz-adv-x="452" 
d="M218 726l-67 -92h-79l112 146h67l112 -146h-79zM218 556q77 0 125 -49t48 -128v-379h-80v39q-40 -51 -120 -51q-73 0 -113.5 40.5t-40.5 106.5q0 94 97 135q22 9 75.5 23t77.5 30t24 47v12q0 42 -25.5 68t-67.5 26t-66 -26t-24 -68v-17h-81v14q0 79 47 128t124 49z
M209 64q48 0 75 27t27 76v93q-22 -15 -71.5 -27.5t-57.5 -15.5q-65 -23 -65 -75q0 -35 24.5 -56.5t67.5 -21.5z" />
    <glyph glyph-name="atilde" unicode="&#xe3;" horiz-adv-x="452" 
d="M151 653v-19h-65v23q0 37 18 56.5t47 19.5q34 0 68 -25q31 -25 44 -25q19 0 19 27v21h64v-27q0 -36 -18 -55.5t-47 -19.5q-32 0 -66 24l-12.5 9.5l-12 9t-9.5 5t-11 2.5q-19 0 -19 -26zM218 556q77 0 125 -49t48 -128v-379h-80v39q-40 -51 -120 -51q-73 0 -113.5 40.5
t-40.5 106.5q0 94 97 135q22 9 75.5 23t77.5 30t24 47v12q0 42 -25.5 68t-67.5 26t-66 -26t-24 -68v-17h-81v14q0 79 47 128t124 49zM209 64q48 0 75 27t27 76v93q-22 -15 -71.5 -27.5t-57.5 -15.5q-65 -23 -65 -75q0 -35 24.5 -56.5t67.5 -21.5z" />
    <glyph glyph-name="adieresis" unicode="&#xe4;" horiz-adv-x="452" 
d="M185 780v-117h-72v117h72zM327 780v-117h-71v117h71zM218 556q77 0 125 -49t48 -128v-379h-80v39q-40 -51 -120 -51q-73 0 -113.5 40.5t-40.5 106.5q0 94 97 135q22 9 75.5 23t77.5 30t24 47v12q0 42 -25.5 68t-67.5 26t-66 -26t-24 -68v-17h-81v14q0 79 47 128t124 49z
M209 64q48 0 75 27t27 76v93q-22 -15 -71.5 -27.5t-57.5 -15.5q-65 -23 -65 -75q0 -35 24.5 -56.5t67.5 -21.5z" />
    <glyph glyph-name="aring" unicode="&#xe5;" horiz-adv-x="452" 
d="M218 573q-39 0 -66.5 26.5t-27.5 67.5t27.5 67.5t66.5 26.5t66.5 -26.5t27.5 -67.5t-27.5 -67.5t-66.5 -26.5zM218 708q-16 0 -28.5 -11.5t-12.5 -29.5t12.5 -29.5t28.5 -11.5q17 0 29.5 11.5t12.5 29.5t-12.5 29.5t-29.5 11.5zM218 556q77 0 125 -49t48 -128v-379h-80
v39q-40 -51 -120 -51q-73 0 -113.5 40.5t-40.5 106.5q0 94 97 135q22 9 75.5 23t77.5 30t24 47v12q0 42 -25.5 68t-67.5 26t-66 -26t-24 -68v-17h-81v14q0 79 47 128t124 49zM209 64q48 0 75 27t27 76v93q-22 -15 -71.5 -27.5t-57.5 -15.5q-65 -23 -65 -75q0 -35 24.5 -56.5
t67.5 -21.5z" />
    <glyph glyph-name="ae" unicode="&#xe6;" horiz-adv-x="704" 
d="M654 258h-263v-96q0 -42 25 -68t67 -26t66.5 26t24.5 68v14h80v-10q0 -80 -47 -129t-124 -49q-102 0 -148 79q-45 -79 -144 -79q-73 0 -113.5 40.5t-40.5 106.5q0 94 97 135q22 9 75.5 23t77.5 30t24 47v12q0 42 -25.5 68t-67.5 26t-66 -26t-24 -68v-17h-81v14
q0 79 47 128t124 49q86 0 133 -58q47 58 132 58q77 0 124 -48.5t47 -128.5v-121zM391 382v-48h183v48q0 42 -24.5 68t-66.5 26t-67 -26t-25 -68zM311 167v93q-22 -15 -71.5 -27.5t-57.5 -15.5q-65 -23 -65 -75q0 -35 24.5 -56.5t67.5 -21.5q48 0 75 27t27 76z" />
    <glyph glyph-name="ccedilla" unicode="&#xe7;" horiz-adv-x="433" 
d="M397 369h-81v13q0 42 -24 68t-66 26t-67 -26t-25 -68v-220q0 -42 25 -68t67 -26t66 26t24 68v14h81v-10q0 -70 -37 -117t-99 -58v-38q45 5 73.5 -21t28.5 -64q0 -42 -27 -67.5t-71 -25.5h-68v61h68q16 0 26 9t10 23t-10 23.5t-26 9.5h-38l-28 18v71q-66 8 -106 56
t-40 120v213q0 79 48 128t125 49t124 -49t47 -128v-10z" />
    <glyph glyph-name="egrave" unicode="&#xe8;" horiz-adv-x="447" 
d="M259 608h-62l-90 172h86zM397 258h-263v-96q0 -42 25 -68t67 -26t66 26t24 68v14h81v-10q0 -80 -47 -129t-124 -49t-125 49t-48 129v213q0 79 48 128t125 49t124 -49t47 -128v-121zM226 476q-42 0 -67 -26t-25 -68v-48h182v48q0 42 -24 68t-66 26z" />
    <glyph glyph-name="eacute" unicode="&#xe9;" horiz-adv-x="447" 
d="M345 780l-89 -172h-62l66 172h85zM397 258h-263v-96q0 -42 25 -68t67 -26t66 26t24 68v14h81v-10q0 -80 -47 -129t-124 -49t-125 49t-48 129v213q0 79 48 128t125 49t124 -49t47 -128v-121zM226 476q-42 0 -67 -26t-25 -68v-48h182v48q0 42 -24 68t-66 26z" />
    <glyph glyph-name="ecircumflex" unicode="&#xea;" horiz-adv-x="447" 
d="M226 726l-67 -92h-79l112 146h67l112 -146h-79zM397 258h-263v-96q0 -42 25 -68t67 -26t66 26t24 68v14h81v-10q0 -80 -47 -129t-124 -49t-125 49t-48 129v213q0 79 48 128t125 49t124 -49t47 -128v-121zM226 476q-42 0 -67 -26t-25 -68v-48h182v48q0 42 -24 68t-66 26z
" />
    <glyph glyph-name="edieresis" unicode="&#xeb;" horiz-adv-x="447" 
d="M193 780v-117h-72v117h72zM335 780v-117h-71v117h71zM397 258h-263v-96q0 -42 25 -68t67 -26t66 26t24 68v14h81v-10q0 -80 -47 -129t-124 -49t-125 49t-48 129v213q0 79 48 128t125 49t124 -49t47 -128v-121zM226 476q-42 0 -67 -26t-25 -68v-48h182v48q0 42 -24 68
t-66 26z" />
    <glyph glyph-name="igrave" unicode="&#xec;" horiz-adv-x="219" 
d="M81 608l-90 172h86l66 -172h-62zM69 0v544h81v-544h-81z" />
    <glyph glyph-name="iacute" unicode="&#xed;" horiz-adv-x="219" 
d="M78 608l66 172h85l-89 -172h-62zM69 0v544h81v-544h-81z" />
    <glyph glyph-name="icircumflex" unicode="&#xee;" horiz-adv-x="219" 
d="M-36 634l112 146h67l112 -146h-79l-66 92l-67 -92h-79zM69 0v544h81v-544h-81z" />
    <glyph glyph-name="idieresis" unicode="&#xef;" horiz-adv-x="219" 
d="M5 663v117h72v-117h-72zM148 663v117h71v-117h-71zM69 0v544h81v-544h-81z" />
    <glyph glyph-name="eth" unicode="&#xf0;" horiz-adv-x="468" 
d="M453 690v-59l-57 -15q2 -16 2 -26v-590h-80v34q-40 -46 -106 -46q-69 0 -112.5 45t-43.5 129v220q0 84 43.5 129t112.5 45q67 0 106 -47v81v5l-85 -23v58l68 19q-24 35 -74 35h-23v66h41q96 0 136 -80zM227 68q43 0 67 25t24 68v221q0 43 -24 68.5t-67 25.5
q-42 0 -66.5 -26t-24.5 -68v-220q0 -42 24.5 -68t66.5 -26z" />
    <glyph glyph-name="ntilde" unicode="&#xf1;" 
d="M171 653v-19h-65v23q0 37 18 56.5t47 19.5q34 0 68 -25q31 -25 44 -25q19 0 19 27v21h64v-27q0 -36 -18 -55.5t-47 -19.5q-32 0 -66 24l-12.5 9.5l-12 9t-9.5 5t-11 2.5q-19 0 -19 -26zM258 556q68 0 108 -47t40 -127v-382h-80v382q0 42 -24 68t-64 26t-64 -26t-24 -68
v-382h-81v544h81v-37q38 49 108 49z" />
    <glyph glyph-name="ograve" unicode="&#xf2;" horiz-adv-x="451" 
d="M197 608l-90 172h86l66 -172h-62zM226 -12q-77 0 -125 49t-48 129v213q0 79 48 128t125 49t124 -49t47 -128v-213q0 -80 -47 -129t-124 -49zM226 68q42 0 66 26t24 68v220q0 42 -24 68t-66 26t-67 -26t-25 -68v-220q0 -42 25 -68t67 -26z" />
    <glyph glyph-name="oacute" unicode="&#xf3;" horiz-adv-x="451" 
d="M194 608l66 172h85l-89 -172h-62zM226 -12q-77 0 -125 49t-48 129v213q0 79 48 128t125 49t124 -49t47 -128v-213q0 -80 -47 -129t-124 -49zM226 68q42 0 66 26t24 68v220q0 42 -24 68t-66 26t-67 -26t-25 -68v-220q0 -42 25 -68t67 -26z" />
    <glyph glyph-name="ocircumflex" unicode="&#xf4;" horiz-adv-x="451" 
d="M80 634l112 146h67l112 -146h-79l-66 92l-67 -92h-79zM226 -12q-77 0 -125 49t-48 129v213q0 79 48 128t125 49t124 -49t47 -128v-213q0 -80 -47 -129t-124 -49zM226 68q42 0 66 26t24 68v220q0 42 -24 68t-66 26t-67 -26t-25 -68v-220q0 -42 25 -68t67 -26z" />
    <glyph glyph-name="otilde" unicode="&#xf5;" horiz-adv-x="451" 
d="M289 629q-32 0 -66 24l-12.5 9.5l-12 9t-9.5 5t-11 2.5q-19 0 -19 -26v-19h-65v23q0 37 18 56.5t47 19.5q34 0 68 -25q31 -25 44 -25q19 0 19 27v21h64v-27q0 -36 -18 -55.5t-47 -19.5zM226 -12q-77 0 -125 49t-48 129v213q0 79 48 128t125 49t124 -49t47 -128v-213
q0 -80 -47 -129t-124 -49zM226 68q42 0 66 26t24 68v220q0 42 -24 68t-66 26t-67 -26t-25 -68v-220q0 -42 25 -68t67 -26z" />
    <glyph glyph-name="odieresis" unicode="&#xf6;" horiz-adv-x="451" 
d="M121 663v117h72v-117h-72zM264 663v117h71v-117h-71zM226 -12q-77 0 -125 49t-48 129v213q0 79 48 128t125 49t124 -49t47 -128v-213q0 -80 -47 -129t-124 -49zM226 68q42 0 66 26t24 68v220q0 42 -24 68t-66 26t-67 -26t-25 -68v-220q0 -42 25 -68t67 -26z" />
    <glyph glyph-name="divide" unicode="&#xf7;" horiz-adv-x="533" 
d="M225 356v125h84v-125h-84zM53 230v84h427v-84h-427zM225 65v125h84v-125h-84z" />
    <glyph glyph-name="oslash" unicode="&#xf8;" horiz-adv-x="451" 
d="M414 564l-45 -82q28 -44 28 -103v-213q0 -80 -47 -129t-124 -49q-63 0 -107 33l-23 -41h-58l44 81q-29 43 -29 105v213q0 79 48 128t125 49q64 0 107 -34l23 42h58zM134 162v-5l159 292q-24 27 -67 27q-42 0 -67 -26t-25 -68v-220zM316 382v2l-158 -290q26 -26 68 -26
t66 26t24 68v220z" />
    <glyph glyph-name="ugrave" unicode="&#xf9;" 
d="M264 608h-62l-90 172h86zM320 544h80v-544h-80v36q-39 -48 -108 -48q-67 0 -108 44t-41 129v383h80v-383q0 -42 24 -67.5t64 -25.5t64.5 25.5t24.5 67.5v383z" />
    <glyph glyph-name="uacute" unicode="&#xfa;" 
d="M350 780l-89 -172h-62l66 172h85zM320 544h80v-544h-80v36q-39 -48 -108 -48q-67 0 -108 44t-41 129v383h80v-383q0 -42 24 -67.5t64 -25.5t64.5 25.5t24.5 67.5v383z" />
    <glyph glyph-name="ucircumflex" unicode="&#xfb;" 
d="M231 726l-67 -92h-79l112 146h67l112 -146h-79zM320 544h80v-544h-80v36q-39 -48 -108 -48q-67 0 -108 44t-41 129v383h80v-383q0 -42 24 -67.5t64 -25.5t64.5 25.5t24.5 67.5v383z" />
    <glyph glyph-name="udieresis" unicode="&#xfc;" 
d="M198 780v-117h-72v117h72zM340 780v-117h-71v117h71zM320 544h80v-544h-80v36q-39 -48 -108 -48q-67 0 -108 44t-41 129v383h80v-383q0 -42 24 -67.5t64 -25.5t64.5 25.5t24.5 67.5v383z" />
    <glyph glyph-name="yacute" unicode="&#xfd;" horiz-adv-x="419" 
d="M329 780l-89 -172h-62l66 172h85zM322 544h88l-207 -724h-86l49 170l-157 554h88l113 -414z" />
    <glyph glyph-name="thorn" unicode="&#xfe;" horiz-adv-x="467" 
d="M256 556q69 0 112.5 -45t43.5 -129v-220q0 -84 -43.5 -129t-112.5 -45q-68 0 -106 46v-214h-81v930h81v-240q38 46 106 46zM331 162v220q0 43 -24.5 68.5t-66.5 25.5q-43 0 -66.5 -25.5t-23.5 -68.5v-221q0 -43 23.5 -68t66.5 -25q42 0 66.5 25.5t24.5 68.5z" />
    <glyph glyph-name="ydieresis" unicode="&#xff;" horiz-adv-x="419" 
d="M177 780v-117h-72v117h72zM319 780v-117h-71v117h71zM322 544h88l-207 -724h-86l49 170l-157 554h88l113 -414z" />
    <glyph glyph-name="Amacron" unicode="&#x100;" horiz-adv-x="459" 
d="M340 894v-63h-221v63h221zM275 750l159 -750h-87l-29 145h-176l-30 -145h-87l160 750h90zM157 229h146l-73 371z" />
    <glyph glyph-name="amacron" unicode="&#x101;" horiz-adv-x="452" 
d="M328 688v-63h-221v63h221zM218 556q77 0 125 -49t48 -128v-379h-80v39q-40 -51 -120 -51q-73 0 -113.5 40.5t-40.5 106.5q0 94 97 135q22 9 75.5 23t77.5 30t24 47v12q0 42 -25.5 68t-67.5 26t-66 -26t-24 -68v-17h-81v14q0 79 47 128t124 49zM209 64q48 0 75 27t27 76
v93q-22 -15 -71.5 -27.5t-57.5 -15.5q-65 -23 -65 -75q0 -35 24.5 -56.5t67.5 -21.5z" />
    <glyph glyph-name="Abreve" unicode="&#x102;" horiz-adv-x="459" 
d="M230 868q-49 0 -81 30t-32 78v10h58v-10q0 -25 15.5 -40.5t39.5 -15.5t39 15.5t15 40.5v10h57v-10q0 -48 -31 -78t-80 -30zM275 750l159 -750h-87l-29 145h-176l-30 -145h-87l160 750h90zM157 229h146l-73 371z" />
    <glyph glyph-name="abreve" unicode="&#x103;" horiz-adv-x="452" 
d="M218 662q-49 0 -81 30t-32 78v10h58v-10q0 -25 15.5 -40.5t39.5 -15.5t39 15.5t15 40.5v10h57v-10q0 -48 -31 -78t-80 -30zM218 556q77 0 125 -49t48 -128v-379h-80v39q-40 -51 -120 -51q-73 0 -113.5 40.5t-40.5 106.5q0 94 97 135q22 9 75.5 23t77.5 30t24 47v12
q0 42 -25.5 68t-67.5 26t-66 -26t-24 -68v-17h-81v14q0 79 47 128t124 49zM209 64q48 0 75 27t27 76v93q-22 -15 -71.5 -27.5t-57.5 -15.5q-65 -23 -65 -75q0 -35 24.5 -56.5t67.5 -21.5z" />
    <glyph glyph-name="Aogonek" unicode="&#x104;" horiz-adv-x="459" 
d="M421 -151h15v-62h-19q-58 0 -90.5 27.5t-32.5 73.5q0 63 61 112h-8l-29 145h-176l-30 -145h-87l160 750h90l159 -750h-18q-59 -48 -59 -99q0 -24 17 -38t47 -14zM157 229h146l-73 371z" />
    <glyph glyph-name="aogonek" unicode="&#x105;" horiz-adv-x="452" 
d="M378 -151h15v-62h-19q-58 0 -90.5 27.5t-32.5 73.5q0 63 61 112h-1v39q-40 -51 -120 -51q-73 0 -113.5 40.5t-40.5 106.5q0 94 97 135q22 9 75.5 23t77.5 30t24 47v12q0 42 -25.5 68t-67.5 26t-66 -26t-24 -68v-17h-81v14q0 79 47 128t124 49t125 -49t48 -128v-379h-18
q-59 -48 -59 -99q0 -24 17 -38t47 -14zM209 64q48 0 75 27t27 76v93q-22 -15 -71.5 -27.5t-57.5 -15.5q-65 -23 -65 -75q0 -35 24.5 -56.5t67.5 -21.5z" />
    <glyph glyph-name="Cacute" unicode="&#x106;" horiz-adv-x="476" 
d="M221 814l66 172h85l-89 -172h-62zM432 196v-27q0 -83 -49 -134t-130 -51t-129.5 51t-48.5 134v412q0 83 48.5 134t129.5 51t130 -51t49 -134v-27h-84v27q0 46 -26 73.5t-69 27.5t-68.5 -27.5t-25.5 -73.5v-412q0 -46 25.5 -73.5t68.5 -27.5t69 27.5t26 73.5v27h84z" />
    <glyph glyph-name="cacute" unicode="&#x107;" horiz-adv-x="433" 
d="M194 608l66 172h85l-89 -172h-62zM397 176v-10q0 -80 -47 -129t-124 -49t-125 49t-48 129v213q0 79 48 128t125 49t124 -49t47 -128v-10h-81v13q0 42 -24 68t-66 26t-67 -26t-25 -68v-220q0 -42 25 -68t67 -26t66 26t24 68v14h81z" />
    <glyph glyph-name="Ccircumflex" unicode="&#x108;" horiz-adv-x="476" 
d="M107 840l112 146h67l112 -146h-79l-66 92l-67 -92h-79zM432 196v-27q0 -83 -49 -134t-130 -51t-129.5 51t-48.5 134v412q0 83 48.5 134t129.5 51t130 -51t49 -134v-27h-84v27q0 46 -26 73.5t-69 27.5t-68.5 -27.5t-25.5 -73.5v-412q0 -46 25.5 -73.5t68.5 -27.5t69 27.5
t26 73.5v27h84z" />
    <glyph glyph-name="ccircumflex" unicode="&#x109;" horiz-adv-x="433" 
d="M80 634l112 146h67l112 -146h-79l-66 92l-67 -92h-79zM397 176v-10q0 -80 -47 -129t-124 -49t-125 49t-48 129v213q0 79 48 128t125 49t124 -49t47 -128v-10h-81v13q0 42 -24 68t-66 26t-67 -26t-25 -68v-220q0 -42 25 -68t67 -26t66 26t24 68v14h81z" />
    <glyph glyph-name="Cdotaccent" unicode="&#x10a;" horiz-adv-x="476" 
d="M217 839v117h72v-117h-72zM432 196v-27q0 -83 -49 -134t-130 -51t-129.5 51t-48.5 134v412q0 83 48.5 134t129.5 51t130 -51t49 -134v-27h-84v27q0 46 -26 73.5t-69 27.5t-68.5 -27.5t-25.5 -73.5v-412q0 -46 25.5 -73.5t68.5 -27.5t69 27.5t26 73.5v27h84z" />
    <glyph glyph-name="cdotaccent" unicode="&#x10b;" horiz-adv-x="433" 
d="M190 633v117h72v-117h-72zM397 176v-10q0 -80 -47 -129t-124 -49t-125 49t-48 129v213q0 79 48 128t125 49t124 -49t47 -128v-10h-81v13q0 42 -24 68t-66 26t-67 -26t-25 -68v-220q0 -42 25 -68t67 -26t66 26t24 68v14h81z" />
    <glyph glyph-name="Ccaron" unicode="&#x10c;" horiz-adv-x="476" 
d="M219 840l-112 146h79l67 -92l66 92h79l-112 -146h-67zM432 196v-27q0 -83 -49 -134t-130 -51t-129.5 51t-48.5 134v412q0 83 48.5 134t129.5 51t130 -51t49 -134v-27h-84v27q0 46 -26 73.5t-69 27.5t-68.5 -27.5t-25.5 -73.5v-412q0 -46 25.5 -73.5t68.5 -27.5t69 27.5
t26 73.5v27h84z" />
    <glyph glyph-name="ccaron" unicode="&#x10d;" horiz-adv-x="433" 
d="M192 634l-112 146h79l67 -92l66 92h79l-112 -146h-67zM397 176v-10q0 -80 -47 -129t-124 -49t-125 49t-48 129v213q0 79 48 128t125 49t124 -49t47 -128v-10h-81v13q0 42 -24 68t-66 26t-67 -26t-25 -68v-220q0 -42 25 -68t67 -26t66 26t24 68v14h81z" />
    <glyph glyph-name="Dcaron" unicode="&#x10e;" horiz-adv-x="507" 
d="M220 840l-112 146h79l67 -92l66 92h79l-112 -146h-67zM86 0v750h172q81 0 130 -51t49 -134v-380q0 -83 -49 -134t-130 -51h-172zM170 84h88q43 0 69 27.5t26 73.5v380q0 46 -26 73.5t-69 27.5h-88v-582z" />
    <glyph glyph-name="dcaron" unicode="&#x10f;" horiz-adv-x="651" 
d="M318 509v241h80v-750h-80v34q-40 -46 -106 -46q-69 0 -112.5 45t-43.5 129v220q0 84 43.5 129t112.5 45q67 0 106 -47zM495 750h80l-40 -224h-80zM227 68q43 0 67 25t24 68v221q0 43 -24 68.5t-67 25.5q-42 0 -66.5 -26t-24.5 -68v-220q0 -42 24.5 -68t66.5 -26z" />
    <glyph glyph-name="Dcroat" unicode="&#x110;" horiz-adv-x="507" 
d="M258 750q81 0 130 -51t49 -134v-380q0 -83 -49 -134t-130 -51h-172v340h-77v70h77v340h172zM353 185v380q0 46 -26 73.5t-69 27.5h-88v-256h76v-70h-76v-256h88q43 0 69 27.5t26 73.5z" />
    <glyph glyph-name="dcroat" unicode="&#x111;" horiz-adv-x="468" 
d="M476 678v-70h-78v-608h-80v34q-40 -46 -106 -46q-69 0 -112.5 45t-43.5 129v220q0 84 43.5 129t112.5 45q67 0 106 -47v99h-79v70h79v72h80v-72h78zM227 68q43 0 67 25t24 68v221q0 43 -24 68.5t-67 25.5q-42 0 -66.5 -26t-24.5 -68v-220q0 -42 24.5 -68t66.5 -26z" />
    <glyph glyph-name="Emacron" unicode="&#x112;" horiz-adv-x="431" 
d="M101 894h221v-63h-221v63zM389 750v-84h-219v-246h192v-84h-192v-252h219v-84h-303v750h303z" />
    <glyph glyph-name="emacron" unicode="&#x113;" horiz-adv-x="447" 
d="M336 688v-63h-221v63h221zM397 258h-263v-96q0 -42 25 -68t67 -26t66 26t24 68v14h81v-10q0 -80 -47 -129t-124 -49t-125 49t-48 129v213q0 79 48 128t125 49t124 -49t47 -128v-121zM226 476q-42 0 -67 -26t-25 -68v-48h182v48q0 42 -24 68t-66 26z" />
    <glyph glyph-name="Ebreve" unicode="&#x114;" horiz-adv-x="431" 
d="M212 868q-49 0 -81 30t-32 78v10h58v-10q0 -25 15.5 -40.5t39.5 -15.5t39 15.5t15 40.5v10h57v-10q0 -48 -31 -78t-80 -30zM389 750v-84h-219v-246h192v-84h-192v-252h219v-84h-303v750h303z" />
    <glyph glyph-name="ebreve" unicode="&#x115;" horiz-adv-x="447" 
d="M226 662q-49 0 -81 30t-32 78v10h58v-10q0 -25 15.5 -40.5t39.5 -15.5t39 15.5t15 40.5v10h57v-10q0 -48 -31 -78t-80 -30zM397 258h-263v-96q0 -42 25 -68t67 -26t66 26t24 68v14h81v-10q0 -80 -47 -129t-124 -49t-125 49t-48 129v213q0 79 48 128t125 49t124 -49
t47 -128v-121zM226 476q-42 0 -67 -26t-25 -68v-48h182v48q0 42 -24 68t-66 26z" />
    <glyph glyph-name="Edotaccent" unicode="&#x116;" horiz-adv-x="431" 
d="M176 839v117h72v-117h-72zM389 750v-84h-219v-246h192v-84h-192v-252h219v-84h-303v750h303z" />
    <glyph glyph-name="edotaccent" unicode="&#x117;" horiz-adv-x="447" 
d="M262 750v-117h-72v117h72zM397 258h-263v-96q0 -42 25 -68t67 -26t66 26t24 68v14h81v-10q0 -80 -47 -129t-124 -49t-125 49t-48 129v213q0 79 48 128t125 49t124 -49t47 -128v-121zM226 476q-42 0 -67 -26t-25 -68v-48h182v48q0 42 -24 68t-66 26z" />
    <glyph glyph-name="Eogonek" unicode="&#x118;" horiz-adv-x="431" 
d="M389 666h-219v-246h192v-84h-192v-252h219v-84h-117q-59 -48 -59 -99q0 -24 17 -38t47 -14h15v-62h-19q-58 0 -90.5 27.5t-32.5 73.5q0 63 61 112h-125v750h303v-84z" />
    <glyph glyph-name="eogonek" unicode="&#x119;" horiz-adv-x="447" 
d="M397 258h-263v-96q0 -42 25 -68t67 -26t66 26t24 68v14h81v-10q0 -65 -31 -110t-85 -60q-54 -46 -54 -95q0 -24 17 -38t47 -14h15v-62h-19q-58 0 -90.5 27.5t-32.5 73.5q0 56 47 100q-72 5 -115 53.5t-43 124.5v213q0 79 48 128t125 49t124 -49t47 -128v-121zM226 476
q-42 0 -67 -26t-25 -68v-48h182v48q0 42 -24 68t-66 26z" />
    <glyph glyph-name="Ecaron" unicode="&#x11a;" horiz-adv-x="431" 
d="M178 840l-112 146h79l67 -92l66 92h79l-112 -146h-67zM389 750v-84h-219v-246h192v-84h-192v-252h219v-84h-303v750h303z" />
    <glyph glyph-name="ecaron" unicode="&#x11b;" horiz-adv-x="447" 
d="M259 634h-67l-112 146h79l67 -92l66 92h79zM397 258h-263v-96q0 -42 25 -68t67 -26t66 26t24 68v14h81v-10q0 -80 -47 -129t-124 -49t-125 49t-48 129v213q0 79 48 128t125 49t124 -49t47 -128v-121zM226 476q-42 0 -67 -26t-25 -68v-48h182v48q0 42 -24 68t-66 26z" />
    <glyph glyph-name="Gcircumflex" unicode="&#x11c;" horiz-adv-x="494" 
d="M107 840l112 146h67l112 -146h-79l-66 92l-67 -92h-79zM253 -16q-81 0 -129.5 51t-48.5 134v412q0 83 48.5 134t129.5 51t130 -51t49 -134v-27h-84v27q0 46 -26 73.5t-69 27.5t-68.5 -27.5t-25.5 -73.5v-412q0 -46 25.5 -73.5t68.5 -27.5t69 27.5t26 73.5v109h-95v84h179
v-193q0 -83 -49 -134t-130 -51z" />
    <glyph glyph-name="gcircumflex" unicode="&#x11d;" horiz-adv-x="458" 
d="M218 726l-67 -92h-79l112 146h67l112 -146h-79zM309 544h80v-550q0 -79 -47.5 -128t-124.5 -49t-124 49t-47 129v14h80v-18q0 -42 24.5 -68t66.5 -26t67 26t25 68v113q-40 -46 -107 -46q-68 0 -111.5 45t-43.5 129v150q0 84 43.5 129t111.5 45t107 -47v35zM218 138
q43 0 67 25t24 68v151q0 43 -24 68.5t-67 25.5q-42 0 -66.5 -26t-24.5 -68v-150q0 -42 24.5 -68t66.5 -26z" />
    <glyph glyph-name="Gbreve" unicode="&#x11e;" horiz-adv-x="494" 
d="M253 868q-49 0 -81 30t-32 78v10h58v-10q0 -25 15.5 -40.5t39.5 -15.5t39 15.5t15 40.5v10h57v-10q0 -48 -31 -78t-80 -30zM253 -16q-81 0 -129.5 51t-48.5 134v412q0 83 48.5 134t129.5 51t130 -51t49 -134v-27h-84v27q0 46 -26 73.5t-69 27.5t-68.5 -27.5t-25.5 -73.5
v-412q0 -46 25.5 -73.5t68.5 -27.5t69 27.5t26 73.5v109h-95v84h179v-193q0 -83 -49 -134t-130 -51z" />
    <glyph glyph-name="gbreve" unicode="&#x11f;" horiz-adv-x="458" 
d="M218 662q-49 0 -81 30t-32 78v10h58v-10q0 -25 15.5 -40.5t39.5 -15.5t39 15.5t15 40.5v10h57v-10q0 -48 -31 -78t-80 -30zM309 544h80v-550q0 -79 -47.5 -128t-124.5 -49t-124 49t-47 129v14h80v-18q0 -42 24.5 -68t66.5 -26t67 26t25 68v113q-40 -46 -107 -46
q-68 0 -111.5 45t-43.5 129v150q0 84 43.5 129t111.5 45t107 -47v35zM218 138q43 0 67 25t24 68v151q0 43 -24 68.5t-67 25.5q-42 0 -66.5 -26t-24.5 -68v-150q0 -42 24.5 -68t66.5 -26z" />
    <glyph glyph-name="Gdotaccent" unicode="&#x120;" horiz-adv-x="494" 
d="M217 839v117h72v-117h-72zM253 -16q-81 0 -129.5 51t-48.5 134v412q0 83 48.5 134t129.5 51t130 -51t49 -134v-27h-84v27q0 46 -26 73.5t-69 27.5t-68.5 -27.5t-25.5 -73.5v-412q0 -46 25.5 -73.5t68.5 -27.5t69 27.5t26 73.5v109h-95v84h179v-193q0 -83 -49 -134
t-130 -51z" />
    <glyph glyph-name="gdotaccent" unicode="&#x121;" horiz-adv-x="458" 
d="M254 750v-117h-72v117h72zM309 544h80v-550q0 -79 -47.5 -128t-124.5 -49t-124 49t-47 129v14h80v-18q0 -42 24.5 -68t66.5 -26t67 26t25 68v113q-40 -46 -107 -46q-68 0 -111.5 45t-43.5 129v150q0 84 43.5 129t111.5 45t107 -47v35zM218 138q43 0 67 25t24 68v151
q0 43 -24 68.5t-67 25.5q-42 0 -66.5 -26t-24.5 -68v-150q0 -42 24.5 -68t66.5 -26z" />
    <glyph glyph-name="Gcommaaccent" unicode="&#x122;" horiz-adv-x="494" 
d="M253 -16q-81 0 -129.5 51t-48.5 134v412q0 83 48.5 134t129.5 51t130 -51t49 -134v-27h-84v27q0 46 -26 73.5t-69 27.5t-68.5 -27.5t-25.5 -73.5v-412q0 -46 25.5 -73.5t68.5 -27.5t69 27.5t26 73.5v109h-95v84h179v-193q0 -83 -49 -134t-130 -51zM191 -220l24 159h92
l-61 -159h-55z" />
    <glyph glyph-name="gcommaaccent" unicode="&#x123;" horiz-adv-x="458" 
d="M309 544h80v-550q0 -79 -47.5 -128t-124.5 -49t-124 49t-47 129v14h80v-18q0 -42 24.5 -68t66.5 -26t67 26t25 68v113q-40 -46 -107 -46q-68 0 -111.5 45t-43.5 129v150q0 84 43.5 129t111.5 45t107 -47v35zM218 138q43 0 67 25t24 68v151q0 43 -24 68.5t-67 25.5
q-42 0 -66.5 -26t-24.5 -68v-150q0 -42 24.5 -68t66.5 -26zM155 -403l24 159h92l-61 -159h-55z" />
    <glyph glyph-name="Hcircumflex" unicode="&#x124;" horiz-adv-x="515" 
d="M112 840l112 146h67l112 -146h-79l-66 92l-67 -92h-79zM86 0v750h84v-381h175v381h84v-750h-84v285h-175v-285h-84z" />
    <glyph glyph-name="hcircumflex" unicode="&#x125;" horiz-adv-x="470" 
d="M175 840l-66 92l-67 -92h-79l112 146h67l112 -146h-79zM258 557q65 0 106.5 -43t41.5 -120v-394h-80v383q0 42 -24 67.5t-64 25.5t-64 -25.5t-24 -67.5v-383h-81v750h81v-241q39 48 108 48z" />
    <glyph glyph-name="Hbar" unicode="&#x126;" horiz-adv-x="515" 
d="M483 579v-70h-54v-509h-84v285h-175v-285h-84v509h-53v70h53v171h84v-171h175v171h84v-171h54zM345 369v140h-175v-140h175z" />
    <glyph glyph-name="hbar" unicode="&#x127;" horiz-adv-x="470" 
d="M258 557q65 0 106.5 -43t41.5 -120v-394h-80v383q0 42 -24 67.5t-64 25.5t-64 -25.5t-24 -67.5v-383h-81v617h-79v70h79v63h81v-63h77v-70h-77v-108q39 48 108 48z" />
    <glyph glyph-name="Itilde" unicode="&#x128;" horiz-adv-x="256" 
d="M191 835q-32 0 -66 24l-12.5 9.5l-12 9t-9.5 5t-11 2.5q-19 0 -19 -26v-19h-65v23q0 37 18 56.5t47 19.5q34 0 68 -25q31 -25 44 -25q19 0 19 27v21h64v-27q0 -36 -18 -55.5t-47 -19.5zM170 0h-84v750h84v-750z" />
    <glyph glyph-name="itilde" unicode="&#x129;" horiz-adv-x="219" 
d="M173 629q-32 0 -66 24l-12.5 9.5l-12 9t-9.5 5t-11 2.5q-19 0 -19 -26v-19h-65v23q0 37 18 56.5t47 19.5q34 0 68 -25q31 -25 44 -25q19 0 19 27v21h64v-27q0 -36 -18 -55.5t-47 -19.5zM69 0v544h81v-544h-81z" />
    <glyph glyph-name="Imacron" unicode="&#x12a;" horiz-adv-x="256" 
d="M17 894h221v-63h-221v63zM170 0h-84v750h84v-750z" />
    <glyph glyph-name="imacron" unicode="&#x12b;" horiz-adv-x="219" 
d="M-1 688h221v-63h-221v63zM69 0v544h81v-544h-81z" />
    <glyph glyph-name="Iogonek" unicode="&#x12e;" horiz-adv-x="256" 
d="M144 0q-59 -48 -59 -99q0 -24 17 -38t47 -14h15v-62h-19q-58 0 -90.5 27.5t-32.5 73.5q0 65 64 115v747h84v-750h-26z" />
    <glyph glyph-name="iogonek" unicode="&#x12f;" horiz-adv-x="219" 
d="M146 750v-117h-72v117h72zM126 0q-59 -48 -59 -99q0 -24 17 -38t47 -14h15v-62h-19q-58 0 -90.5 27.5t-32.5 73.5q0 65 65 115v541h81v-544h-24z" />
    <glyph glyph-name="Idotaccent" unicode="&#x130;" horiz-adv-x="256" 
d="M92 839v117h72v-117h-72zM170 0h-84v750h84v-750z" />
    <glyph glyph-name="dotlessi" unicode="&#x131;" horiz-adv-x="219" 
d="M69 0v544h81v-544h-81z" />
    <glyph glyph-name="IJ" unicode="&#x132;" horiz-adv-x="584" 
d="M170 0h-84v750h84v-750zM273 -6v84h53q43 0 69 27.5t26 73.5v571h84v-571q0 -83 -49 -134t-130 -51h-53z" />
    <glyph glyph-name="ij" unicode="&#x133;" horiz-adv-x="438" 
d="M69 601v119h81v-119h-81zM288 601v119h81v-119h-81zM69 0v544h81v-544h-81zM165 -183v80h32q41 0 66 28t25 73v546h81v-542q0 -83 -47 -134t-125 -51h-32z" />
    <glyph glyph-name="Jcircumflex" unicode="&#x134;" horiz-adv-x="328" 
d="M59 840l112 146h67l112 -146h-79l-66 92l-67 -92h-79zM17 -6v84h53q43 0 69 27.5t26 73.5v571h84v-571q0 -83 -49 -134t-130 -51h-53z" />
    <glyph glyph-name="jcircumflex" unicode="&#x135;" horiz-adv-x="219" 
d="M-36 634l112 146h67l112 -146h-79l-66 92l-67 -92h-79zM-54 -183v80h32q41 0 66 28t25 73v546h81v-542q0 -83 -47 -134t-125 -51h-32z" />
    <glyph glyph-name="Kcommaaccent" unicode="&#x136;" horiz-adv-x="492" 
d="M264 469l206 -469h-91l-172 385l-37 -54v-331h-84v750h84v-281l195 281h90zM176 -220l24 159h92l-61 -159h-55z" />
    <glyph glyph-name="kcommaaccent" unicode="&#x137;" horiz-adv-x="429" 
d="M252 358l174 -358h-85l-142 288l-49 -64v-224h-81v750h81v-406l160 200h86zM146 -220l24 159h92l-61 -159h-55z" />
    <glyph glyph-name="kgreenlandic" unicode="&#x138;" horiz-adv-x="428" 
d="M426 0h-85l-191 336v-336h-81v544h81v-196l160 196h86l-167 -205z" />
    <glyph glyph-name="Lacute" unicode="&#x139;" horiz-adv-x="389" 
d="M151 814l66 172h85l-89 -172h-62zM170 750v-666h199v-84h-283v750h84z" />
    <glyph glyph-name="lacute" unicode="&#x13a;" horiz-adv-x="219" 
d="M78 814l66 172h85l-89 -172h-62zM69 0v750h81v-750h-81z" />
    <glyph glyph-name="Lcommaaccent" unicode="&#x13b;" horiz-adv-x="389" 
d="M170 750v-666h199v-84h-283v750h84zM121 -220l24 159h92l-61 -159h-55z" />
    <glyph glyph-name="lcommaaccent" unicode="&#x13c;" horiz-adv-x="219" 
d="M69 0v750h81v-750h-81zM48 -220l24 159h92l-61 -159h-55z" />
    <glyph glyph-name="Lcaron" unicode="&#x13d;" horiz-adv-x="389" 
d="M149 840l-112 146h79l67 -92l66 92h79l-112 -146h-67zM170 750v-666h199v-84h-283v750h84z" />
    <glyph glyph-name="lcaron" unicode="&#x13e;" horiz-adv-x="440" 
d="M69 0v750h81v-750h-81zM244 526l40 224h80l-40 -224h-80z" />
    <glyph glyph-name="Ldot" unicode="&#x13f;" horiz-adv-x="388" 
d="M170 750v-666h199v-84h-283v750h84zM239 316v120h77v-120h-77z" />
    <glyph glyph-name="ldot" unicode="&#x140;" horiz-adv-x="368" 
d="M69 0v750h81v-750h-81zM222 315v120h77v-120h-77z" />
    <glyph glyph-name="Lslash" unicode="&#x141;" horiz-adv-x="389" 
d="M170 84h199v-84h-283v322l-99 -35v77l99 35v351h84v-321l98 35v-77l-98 -35v-268z" />
    <glyph glyph-name="lslash" unicode="&#x142;" horiz-adv-x="219" 
d="M237 449v-81l-87 -23v-345h-81v324l-86 -23v80l86 23v346h81v-324z" />
    <glyph glyph-name="Nacute" unicode="&#x143;" horiz-adv-x="525" 
d="M382 986l-89 -172h-62l66 172h85zM359 750h80v-750h-71l-202 531v-531h-80v750h71l202 -531v531z" />
    <glyph glyph-name="nacute" unicode="&#x144;" 
d="M357 780l-89 -172h-62l66 172h85zM258 556q68 0 108 -47t40 -127v-382h-80v382q0 42 -24 68t-64 26t-64 -26t-24 -68v-382h-81v544h81v-37q38 49 108 49z" />
    <glyph glyph-name="Ncommaaccent" unicode="&#x145;" horiz-adv-x="525" 
d="M359 750h80v-750h-71l-202 531v-531h-80v750h71l202 -531v531zM201 -220l24 159h92l-61 -159h-55z" />
    <glyph glyph-name="ncommaaccent" unicode="&#x146;" 
d="M258 556q68 0 108 -47t40 -127v-382h-80v382q0 42 -24 68t-64 26t-64 -26t-24 -68v-382h-81v544h81v-37q38 49 108 49zM176 -220l24 159h92l-61 -159h-55z" />
    <glyph glyph-name="Ncaron" unicode="&#x147;" horiz-adv-x="525" 
d="M296 840h-67l-112 146h79l67 -92l66 92h79zM359 750h80v-750h-71l-202 531v-531h-80v750h71l202 -531v531z" />
    <glyph glyph-name="ncaron" unicode="&#x148;" 
d="M271 634h-67l-112 146h79l67 -92l66 92h79zM258 556q68 0 108 -47t40 -127v-382h-80v382q0 42 -24 68t-64 26t-64 -26t-24 -68v-382h-81v544h81v-37q38 49 108 49z" />
    <glyph glyph-name="napostrophe" unicode="&#x149;" horiz-adv-x="651" 
d="M76 612v138h84v-138l-26 -86h-50l26 86h-34zM440 556q68 0 108 -47t40 -127v-382h-80v382q0 42 -24 68t-64 26t-64 -26t-24 -68v-382h-81v544h81v-37q38 49 108 49z" />
    <glyph glyph-name="Omacron" unicode="&#x14c;" horiz-adv-x="507" 
d="M142 894h221v-63h-221v63zM253 -16q-81 0 -129.5 51t-48.5 134v412q0 83 48.5 134t129.5 51t130 -51t49 -134v-412q0 -83 -49 -134t-130 -51zM253 68q43 0 69 27.5t26 73.5v412q0 46 -26 73.5t-69 27.5t-68.5 -27.5t-25.5 -73.5v-412q0 -46 25.5 -73.5t68.5 -27.5z" />
    <glyph glyph-name="omacron" unicode="&#x14d;" horiz-adv-x="451" 
d="M115 688h221v-63h-221v63zM226 -12q-77 0 -125 49t-48 129v213q0 79 48 128t125 49t124 -49t47 -128v-213q0 -80 -47 -129t-124 -49zM226 68q42 0 66 26t24 68v220q0 42 -24 68t-66 26t-67 -26t-25 -68v-220q0 -42 25 -68t67 -26z" />
    <glyph glyph-name="Obreve" unicode="&#x14e;" horiz-adv-x="507" 
d="M253 868q-49 0 -81 30t-32 78v10h58v-10q0 -25 15.5 -40.5t39.5 -15.5t39 15.5t15 40.5v10h57v-10q0 -48 -31 -78t-80 -30zM253 -16q-81 0 -129.5 51t-48.5 134v412q0 83 48.5 134t129.5 51t130 -51t49 -134v-412q0 -83 -49 -134t-130 -51zM253 68q43 0 69 27.5t26 73.5
v412q0 46 -26 73.5t-69 27.5t-68.5 -27.5t-25.5 -73.5v-412q0 -46 25.5 -73.5t68.5 -27.5z" />
    <glyph glyph-name="obreve" unicode="&#x14f;" horiz-adv-x="451" 
d="M226 662q-49 0 -81 30t-32 78v10h58v-10q0 -25 15.5 -40.5t39.5 -15.5t39 15.5t15 40.5v10h57v-10q0 -48 -31 -78t-80 -30zM226 -12q-77 0 -125 49t-48 129v213q0 79 48 128t125 49t124 -49t47 -128v-213q0 -80 -47 -129t-124 -49zM226 68q42 0 66 26t24 68v220
q0 42 -24 68t-66 26t-67 -26t-25 -68v-220q0 -42 25 -68t67 -26z" />
    <glyph glyph-name="Ohungarumlaut" unicode="&#x150;" horiz-adv-x="507" 
d="M143 814l66 172h85l-89 -172h-62zM293 814l66 172h85l-89 -172h-62zM253 -16q-81 0 -129.5 51t-48.5 134v412q0 83 48.5 134t129.5 51t130 -51t49 -134v-412q0 -83 -49 -134t-130 -51zM253 68q43 0 69 27.5t26 73.5v412q0 46 -26 73.5t-69 27.5t-68.5 -27.5t-25.5 -73.5
v-412q0 -46 25.5 -73.5t68.5 -27.5z" />
    <glyph glyph-name="ohungarumlaut" unicode="&#x151;" horiz-adv-x="451" 
d="M116 608l66 172h85l-89 -172h-62zM266 608l66 172h85l-89 -172h-62zM226 -12q-77 0 -125 49t-48 129v213q0 79 48 128t125 49t124 -49t47 -128v-213q0 -80 -47 -129t-124 -49zM226 68q42 0 66 26t24 68v220q0 42 -24 68t-66 26t-67 -26t-25 -68v-220q0 -42 25 -68t67 -26
z" />
    <glyph glyph-name="OE" unicode="&#x152;" horiz-adv-x="727" 
d="M253 -16q-81 0 -129.5 51t-48.5 134v412q0 83 48.5 134t129.5 51q79 0 128 -49v33h304v-84h-220v-246h193v-84h-193v-252h220v-84h-304v33q-49 -49 -128 -49zM253 68q43 0 69 27.5t26 73.5v412q0 46 -26 73.5t-69 27.5t-68.5 -27.5t-25.5 -73.5v-412q0 -46 25.5 -73.5
t68.5 -27.5z" />
    <glyph glyph-name="oe" unicode="&#x153;" horiz-adv-x="710" 
d="M660 258h-263v-96q0 -42 25 -68t67 -26t66.5 26t24.5 68v14h80v-10q0 -80 -47 -129t-124 -49q-85 0 -132 58q-47 -58 -131 -58q-77 0 -125 49t-48 129v213q0 79 48 128t125 49q84 0 131 -58q47 58 132 58q77 0 124 -49t47 -128v-121zM316 162v220q0 42 -24 68t-66 26
t-67 -26t-25 -68v-220q0 -42 25 -68t67 -26t66 26t24 68zM397 382v-48h183v48q0 42 -24.5 68t-66.5 26t-67 -26t-25 -68z" />
    <glyph glyph-name="Racute" unicode="&#x154;" horiz-adv-x="510" 
d="M374 986l-89 -172h-62l66 172h85zM437 474q0 -91 -61 -139q61 -38 61 -115v-220h-84v220q0 37 -22.5 59t-59.5 22h-101v-301h-84v750h185q75 0 120.5 -47.5t45.5 -124.5v-104zM271 385q37 0 59.5 24.5t22.5 64.5v104q0 40 -22.5 64t-59.5 24h-101v-281h101z" />
    <glyph glyph-name="racute" unicode="&#x155;" horiz-adv-x="285" 
d="M296 780l-89 -172h-62l66 172h85zM150 502q38 48 108 48h24v-80h-44q-41 0 -64.5 -24.5t-23.5 -67.5v-378h-81v544h81v-42z" />
    <glyph glyph-name="Rcommaaccent" unicode="&#x156;" horiz-adv-x="510" 
d="M437 474q0 -91 -61 -139q61 -38 61 -115v-220h-84v220q0 37 -22.5 59t-59.5 22h-101v-301h-84v750h185q75 0 120.5 -47.5t45.5 -124.5v-104zM271 385q37 0 59.5 24.5t22.5 64.5v104q0 40 -22.5 64t-59.5 24h-101v-281h101zM193 -220l24 159h92l-61 -159h-55z" />
    <glyph glyph-name="rcommaaccent" unicode="&#x157;" horiz-adv-x="285" 
d="M258 550h24v-80h-44q-41 0 -64.5 -24.5t-23.5 -67.5v-378h-81v544h81v-42q38 48 108 48zM47 -220l24 159h92l-61 -159h-55z" />
    <glyph glyph-name="Rcaron" unicode="&#x158;" horiz-adv-x="510" 
d="M288 840h-67l-112 146h79l67 -92l66 92h79zM437 474q0 -91 -61 -139q61 -38 61 -115v-220h-84v220q0 37 -22.5 59t-59.5 22h-101v-301h-84v750h185q75 0 120.5 -47.5t45.5 -124.5v-104zM271 385q37 0 59.5 24.5t22.5 64.5v104q0 40 -22.5 64t-59.5 24h-101v-281h101z" />
    <glyph glyph-name="rcaron" unicode="&#x159;" horiz-adv-x="285" 
d="M210 634h-67l-112 146h79l67 -92l66 92h79zM150 502q38 48 108 48h24v-80h-44q-41 0 -64.5 -24.5t-23.5 -67.5v-378h-81v544h81v-42z" />
    <glyph glyph-name="Sacute" unicode="&#x15a;" horiz-adv-x="471" 
d="M204 814l66 172h85l-89 -172h-62zM236 -16q-81 0 -130 51t-49 134v27h84v-27q0 -46 26 -73.5t69 -27.5t69 27.5t26 73.5v59q0 46 -26 73.5t-69 27.5q-81 0 -130 51t-49 134v67q0 83 49 134t130 51t130 -51t49 -134v-27h-84v27q0 46 -26 73.5t-69 27.5t-69 -27.5
t-26 -73.5v-67q0 -45 26 -73t69 -28q81 0 130 -51t49 -134v-59q0 -83 -49 -134t-130 -51z" />
    <glyph glyph-name="sacute" unicode="&#x15b;" horiz-adv-x="423" 
d="M180 608l66 172h85l-89 -172h-62zM214 -12q-77 0 -124 45.5t-47 120.5v17h81v-21q0 -37 25 -59.5t65 -22.5q39 0 62.5 23t23.5 59q0 37 -24 60.5t-63 23.5q-77 0 -123.5 44t-46.5 116q0 73 46.5 117.5t123.5 44.5q76 0 122 -45.5t46 -120.5v-16h-81v20q0 37 -23.5 59.5
t-63.5 22.5q-41 0 -65 -23t-24 -59q0 -38 24 -61t65 -23q76 0 122 -44t46 -116q0 -73 -45.5 -117.5t-121.5 -44.5z" />
    <glyph glyph-name="Scircumflex" unicode="&#x15c;" horiz-adv-x="471" 
d="M90 840l112 146h67l112 -146h-79l-66 92l-67 -92h-79zM236 -16q-81 0 -130 51t-49 134v27h84v-27q0 -46 26 -73.5t69 -27.5t69 27.5t26 73.5v59q0 46 -26 73.5t-69 27.5q-81 0 -130 51t-49 134v67q0 83 49 134t130 51t130 -51t49 -134v-27h-84v27q0 46 -26 73.5t-69 27.5
t-69 -27.5t-26 -73.5v-67q0 -45 26 -73t69 -28q81 0 130 -51t49 -134v-59q0 -83 -49 -134t-130 -51z" />
    <glyph glyph-name="scircumflex" unicode="&#x15d;" horiz-adv-x="423" 
d="M66 634l112 146h67l112 -146h-79l-66 92l-67 -92h-79zM214 -12q-77 0 -124 45.5t-47 120.5v17h81v-21q0 -37 25 -59.5t65 -22.5q39 0 62.5 23t23.5 59q0 37 -24 60.5t-63 23.5q-77 0 -123.5 44t-46.5 116q0 73 46.5 117.5t123.5 44.5q76 0 122 -45.5t46 -120.5v-16h-81
v20q0 37 -23.5 59.5t-63.5 22.5q-41 0 -65 -23t-24 -59q0 -38 24 -61t65 -23q76 0 122 -44t46 -116q0 -73 -45.5 -117.5t-121.5 -44.5z" />
    <glyph glyph-name="Scedilla" unicode="&#x15e;" horiz-adv-x="471" 
d="M415 554h-84v27q0 46 -26 73.5t-69 27.5t-69 -27.5t-26 -73.5v-67q0 -45 26 -73t69 -28q81 0 130 -51t49 -134v-59q0 -74 -39 -122.5t-105 -59.5v-34q45 5 73.5 -21t28.5 -64q0 -42 -27 -67.5t-71 -25.5h-68v61h68q16 0 26 9t10 23t-10 23.5t-26 9.5h-38l-28 18v67
q-70 8 -111 57.5t-41 125.5v27h84v-27q0 -46 26 -73.5t69 -27.5t69 27.5t26 73.5v59q0 46 -26 73.5t-69 27.5q-81 0 -130 51t-49 134v67q0 83 49 134t130 51t130 -51t49 -134v-27z" />
    <glyph glyph-name="scedilla" unicode="&#x15f;" horiz-adv-x="423" 
d="M381 374h-81v20q0 37 -23.5 59.5t-63.5 22.5q-41 0 -65 -23t-24 -59q0 -38 24 -61t65 -23q76 0 122 -44t46 -116q0 -64 -36 -107t-98 -53v-37q45 5 73.5 -21t28.5 -64q0 -42 -27 -67.5t-71 -25.5h-68v61h68q16 0 26 9t10 23t-10 23.5t-26 9.5h-38l-28 18v71
q-65 8 -103.5 52.5t-38.5 111.5v17h81v-21q0 -37 25 -59.5t65 -22.5q39 0 62.5 23t23.5 59q0 37 -24 60.5t-63 23.5q-77 0 -123.5 44t-46.5 116q0 73 46.5 117.5t123.5 44.5q76 0 122 -45.5t46 -120.5v-16z" />
    <glyph glyph-name="Scaron" unicode="&#x160;" horiz-adv-x="471" 
d="M202 840l-112 146h79l67 -92l66 92h79l-112 -146h-67zM236 -16q-81 0 -130 51t-49 134v27h84v-27q0 -46 26 -73.5t69 -27.5t69 27.5t26 73.5v59q0 46 -26 73.5t-69 27.5q-81 0 -130 51t-49 134v67q0 83 49 134t130 51t130 -51t49 -134v-27h-84v27q0 46 -26 73.5t-69 27.5
t-69 -27.5t-26 -73.5v-67q0 -45 26 -73t69 -28q81 0 130 -51t49 -134v-59q0 -83 -49 -134t-130 -51z" />
    <glyph glyph-name="scaron" unicode="&#x161;" horiz-adv-x="423" 
d="M178 634l-112 146h79l67 -92l66 92h79l-112 -146h-67zM214 -12q-77 0 -124 45.5t-47 120.5v17h81v-21q0 -37 25 -59.5t65 -22.5q39 0 62.5 23t23.5 59q0 37 -24 60.5t-63 23.5q-77 0 -123.5 44t-46.5 116q0 73 46.5 117.5t123.5 44.5q76 0 122 -45.5t46 -120.5v-16h-81
v20q0 37 -23.5 59.5t-63.5 22.5q-41 0 -65 -23t-24 -59q0 -38 24 -61t65 -23q76 0 122 -44t46 -116q0 -73 -45.5 -117.5t-121.5 -44.5z" />
    <glyph glyph-name="uni0162" unicode="&#x162;" horiz-adv-x="371" 
d="M228 0h-10v-47q45 5 73.5 -21t28.5 -64q0 -42 -27 -67.5t-71 -25.5h-68v61h68q16 0 26 9t10 23t-10 23.5t-26 9.5h-38l-28 18v81h-12v666h-126v84h336v-84h-126v-666z" />
    <glyph glyph-name="uni0163" unicode="&#x163;" horiz-adv-x="334" 
d="M276 -47q45 5 73.5 -21t28.5 -64q0 -42 -27 -67.5t-71 -25.5h-68v61h68q16 0 26 9t10 23t-10 23.5t-26 9.5h-38l-28 18v83q-53 17 -83 62t-30 110v295h-96v75h96v136h80v-136h131v-75h-131v-295q0 -45 25 -72.5t67 -27.5h39v-80h-36v-41z" />
    <glyph glyph-name="Tcaron" unicode="&#x164;" horiz-adv-x="371" 
d="M152 840l-112 146h79l67 -92l66 92h79l-112 -146h-67zM144 0v666h-126v84h336v-84h-126v-666h-84z" />
    <glyph glyph-name="tcaron" unicode="&#x165;" horiz-adv-x="561" 
d="M365 526l40 224h80l-40 -224h-80zM273 -6q-78 0 -125 48.5t-47 131.5v295h-96v75h96v136h80v-136h131v-75h-131v-295q0 -45 25 -72.5t67 -27.5h39v-80h-39z" />
    <glyph glyph-name="Tbar" unicode="&#x166;" horiz-adv-x="371" 
d="M354 666h-126v-256h76v-70h-76v-340h-84v340h-77v70h77v256h-126v84h336v-84z" />
    <glyph glyph-name="tbar" unicode="&#x167;" horiz-adv-x="334" 
d="M316 235h-135v-61q0 -45 25 -72.5t67 -27.5h39v-80h-39q-78 0 -125 48.5t-47 131.5v61h-85v75h85v159h-96v75h96v136h80v-136h131v-75h-131v-159h135v-75z" />
    <glyph glyph-name="Utilde" unicode="&#x168;" horiz-adv-x="519" 
d="M323 835q-32 0 -66 24l-12.5 9.5l-12 9t-9.5 5t-11 2.5q-19 0 -19 -26v-19h-65v23q0 37 18 56.5t47 19.5q34 0 68 -25q31 -25 44 -25q19 0 19 27v21h64v-27q0 -36 -18 -55.5t-47 -19.5zM438 750v-581q0 -83 -49 -134t-130 -51t-129.5 51t-48.5 134v581h84v-581
q0 -46 25.5 -73.5t68.5 -27.5t69 27.5t26 73.5v581h84z" />
    <glyph glyph-name="utilde" unicode="&#x169;" 
d="M164 653v-19h-65v23q0 37 18 56.5t47 19.5q34 0 68 -25q31 -25 44 -25q19 0 19 27v21h64v-27q0 -36 -18 -55.5t-47 -19.5q-32 0 -66 24l-12.5 9.5l-12 9t-9.5 5t-11 2.5q-19 0 -19 -26zM320 544h80v-544h-80v36q-39 -48 -108 -48q-67 0 -108 44t-41 129v383h80v-383
q0 -42 24 -67.5t64 -25.5t64.5 25.5t24.5 67.5v383z" />
    <glyph glyph-name="Umacron" unicode="&#x16a;" horiz-adv-x="519" 
d="M149 894h221v-63h-221v63zM438 750v-581q0 -83 -49 -134t-130 -51t-129.5 51t-48.5 134v581h84v-581q0 -46 25.5 -73.5t68.5 -27.5t69 27.5t26 73.5v581h84z" />
    <glyph glyph-name="umacron" unicode="&#x16b;" 
d="M341 688v-63h-221v63h221zM320 544h80v-544h-80v36q-39 -48 -108 -48q-67 0 -108 44t-41 129v383h80v-383q0 -42 24 -67.5t64 -25.5t64.5 25.5t24.5 67.5v383z" />
    <glyph glyph-name="Ubreve" unicode="&#x16c;" horiz-adv-x="519" 
d="M260 868q-49 0 -81 30t-32 78v10h58v-10q0 -25 15.5 -40.5t39.5 -15.5t39 15.5t15 40.5v10h57v-10q0 -48 -31 -78t-80 -30zM438 750v-581q0 -83 -49 -134t-130 -51t-129.5 51t-48.5 134v581h84v-581q0 -46 25.5 -73.5t68.5 -27.5t69 27.5t26 73.5v581h84z" />
    <glyph glyph-name="ubreve" unicode="&#x16d;" 
d="M231 662q-49 0 -81 30t-32 78v10h58v-10q0 -25 15.5 -40.5t39.5 -15.5t39 15.5t15 40.5v10h57v-10q0 -48 -31 -78t-80 -30zM320 544h80v-544h-80v36q-39 -48 -108 -48q-67 0 -108 44t-41 129v383h80v-383q0 -42 24 -67.5t64 -25.5t64.5 25.5t24.5 67.5v383z" />
    <glyph glyph-name="Uring" unicode="&#x16e;" horiz-adv-x="519" 
d="M260 779q-39 0 -66.5 26.5t-27.5 67.5t27.5 67.5t66.5 26.5t66.5 -26.5t27.5 -67.5t-27.5 -67.5t-66.5 -26.5zM260 832q17 0 29.5 11.5t12.5 29.5t-12.5 29.5t-29.5 11.5q-16 0 -28.5 -11.5t-12.5 -29.5t12.5 -29.5t28.5 -11.5zM438 750v-581q0 -83 -49 -134t-130 -51
t-129.5 51t-48.5 134v581h84v-581q0 -46 25.5 -73.5t68.5 -27.5t69 27.5t26 73.5v581h84z" />
    <glyph glyph-name="uring" unicode="&#x16f;" 
d="M231 573q-39 0 -66.5 26.5t-27.5 67.5t27.5 67.5t66.5 26.5t66.5 -26.5t27.5 -67.5t-27.5 -67.5t-66.5 -26.5zM231 708q-16 0 -28.5 -11.5t-12.5 -29.5t12.5 -29.5t28.5 -11.5q17 0 29.5 11.5t12.5 29.5t-12.5 29.5t-29.5 11.5zM320 544h80v-544h-80v36q-39 -48 -108 -48
q-67 0 -108 44t-41 129v383h80v-383q0 -42 24 -67.5t64 -25.5t64.5 25.5t24.5 67.5v383z" />
    <glyph glyph-name="Uhungarumlaut" unicode="&#x170;" horiz-adv-x="519" 
d="M150 814l66 172h85l-89 -172h-62zM300 814l66 172h85l-89 -172h-62zM438 750v-581q0 -83 -49 -134t-130 -51t-129.5 51t-48.5 134v581h84v-581q0 -46 25.5 -73.5t68.5 -27.5t69 27.5t26 73.5v581h84z" />
    <glyph glyph-name="uhungarumlaut" unicode="&#x171;" 
d="M272 780l-89 -172h-62l66 172h85zM333 608h-62l66 172h85zM320 161v383h80v-544h-80v36q-39 -48 -108 -48q-67 0 -108 44t-41 129v383h80v-383q0 -42 24 -67.5t64 -25.5t64.5 25.5t24.5 67.5z" />
    <glyph glyph-name="Uogonek" unicode="&#x172;" horiz-adv-x="519" 
d="M354 750h84v-581q0 -79 -44 -129t-117 -55q-42 -40 -42 -84q0 -24 17 -38t47 -14h15v-62h-19q-58 0 -90.5 27.5t-32.5 73.5q0 56 47 100q-64 12 -101 60.5t-37 120.5v581h84v-581q0 -46 25.5 -73.5t68.5 -27.5t69 27.5t26 73.5v581z" />
    <glyph glyph-name="uogonek" unicode="&#x173;" 
d="M374 0q-59 -48 -59 -99q0 -24 17 -38t47 -14h15v-62h-19q-58 0 -90.5 27.5t-32.5 73.5q0 65 68 118v30q-39 -48 -108 -48q-67 0 -108 44t-41 129v383h80v-383q0 -42 24 -67.5t64 -25.5t64.5 25.5t24.5 67.5v383h80v-544h-26z" />
    <glyph glyph-name="Wcircumflex" unicode="&#x174;" horiz-adv-x="654" 
d="M328 932l-67 -92h-79l112 146h67l112 -146h-79zM531 750h86l-103 -750h-90l-96 519l-98 -519h-90l-103 750h86l72 -561l95 561h74l95 -561z" />
    <glyph glyph-name="wcircumflex" unicode="&#x175;" horiz-adv-x="559" 
d="M280 726l-67 -92h-79l112 146h67l112 -146h-79zM450 544h84l-88 -544h-89l-77 372l-78 -372h-89l-88 544h83l54 -416l80 416h75l80 -416z" />
    <glyph glyph-name="Ycircumflex" unicode="&#x176;" 
d="M235 932l-67 -92h-79l112 146h67l112 -146h-79zM369 750h86l-178 -372v-378h-84v378l-179 372h86l135 -285z" />
    <glyph glyph-name="ycircumflex" unicode="&#x177;" horiz-adv-x="419" 
d="M210 726l-67 -92h-79l112 146h67l112 -146h-79zM322 544h88l-207 -724h-86l49 170l-157 554h88l113 -414z" />
    <glyph glyph-name="Ydieresis" unicode="&#x178;" 
d="M202 986v-117h-72v117h72zM344 986v-117h-71v117h71zM369 750h86l-178 -372v-378h-84v378l-179 372h86l135 -285z" />
    <glyph glyph-name="Zacute" unicode="&#x179;" horiz-adv-x="422" 
d="M330 986l-89 -172h-62l66 172h85zM388 750v-64l-263 -602h263v-84h-353v64l262 602h-262v84h353z" />
    <glyph glyph-name="zacute" unicode="&#x17a;" horiz-adv-x="382" 
d="M311 780l-89 -172h-62l66 172h85zM358 544v-63l-232 -401h226v-80h-328v63l236 400h-231v81h329z" />
    <glyph glyph-name="Zdotaccent" unicode="&#x17b;" horiz-adv-x="422" 
d="M247 956v-117h-72v117h72zM388 750v-64l-263 -602h263v-84h-353v64l262 602h-262v84h353z" />
    <glyph glyph-name="zdotaccent" unicode="&#x17c;" horiz-adv-x="382" 
d="M228 750v-117h-72v117h72zM358 544v-63l-232 -401h226v-80h-328v63l236 400h-231v81h329z" />
    <glyph glyph-name="Zcaron" unicode="&#x17d;" horiz-adv-x="422" 
d="M244 840h-67l-112 146h79l67 -92l66 92h79zM388 750v-64l-263 -602h263v-84h-353v64l262 602h-262v84h353z" />
    <glyph glyph-name="zcaron" unicode="&#x17e;" horiz-adv-x="382" 
d="M225 634h-67l-112 146h79l67 -92l66 92h79zM358 544v-63l-232 -401h226v-80h-328v63l236 400h-231v81h329z" />
    <glyph glyph-name="longs" unicode="&#x17f;" horiz-adv-x="281" 
d="M105 0v468h-101v76h101v35q0 80 47.5 130.5t125.5 50.5h40v-80h-40q-42 0 -67.5 -28t-25.5 -73v-579h-80z" />
    <glyph glyph-name="florin" unicode="&#x192;" horiz-adv-x="537" 
d="M40 -180v80h49q41 0 69 28t33 73l38 367h-100v76h109l14 135q8 80 59 130.5t124 50.5h49v-80h-49q-42 0 -70 -28t-33 -73l-14 -135h166v-76h-174l-39 -367q-8 -80 -58.5 -130.5t-123.5 -50.5h-49z" />
    <glyph glyph-name="Scommaaccent" unicode="&#x218;" horiz-adv-x="471" 
d="M236 -16q-81 0 -130 51t-49 134v27h84v-27q0 -46 26 -73.5t69 -27.5t69 27.5t26 73.5v59q0 46 -26 73.5t-69 27.5q-81 0 -130 51t-49 134v67q0 83 49 134t130 51t130 -51t49 -134v-27h-84v27q0 46 -26 73.5t-69 27.5t-69 -27.5t-26 -73.5v-67q0 -45 26 -73t69 -28
q81 0 130 -51t49 -134v-59q0 -83 -49 -134t-130 -51zM174 -220l24 159h92l-61 -159h-55z" />
    <glyph glyph-name="scommaaccent" unicode="&#x219;" horiz-adv-x="423" 
d="M214 -12q-77 0 -124 45.5t-47 120.5v17h81v-21q0 -37 25 -59.5t65 -22.5q39 0 62.5 23t23.5 59q0 37 -24 60.5t-63 23.5q-77 0 -123.5 44t-46.5 116q0 73 46.5 117.5t123.5 44.5q76 0 122 -45.5t46 -120.5v-16h-81v20q0 37 -23.5 59.5t-63.5 22.5q-41 0 -65 -23t-24 -59
q0 -38 24 -61t65 -23q76 0 122 -44t46 -116q0 -73 -45.5 -117.5t-121.5 -44.5zM150 -220l24 159h92l-61 -159h-55z" />
    <glyph glyph-name="uni021A" unicode="&#x21a;" horiz-adv-x="371" 
d="M144 0v666h-126v84h336v-84h-126v-666h-84zM121 -220l24 159h92l-61 -159h-55z" />
    <glyph glyph-name="uni021B" unicode="&#x21b;" horiz-adv-x="334" 
d="M273 -6q-78 0 -125 48.5t-47 131.5v295h-96v75h96v136h80v-136h131v-75h-131v-295q0 -45 25 -72.5t67 -27.5h39v-80h-39zM179 -220l24 159h92l-61 -159h-55z" />
    <glyph glyph-name="uni0237" unicode="&#x237;" horiz-adv-x="219" 
d="M-54 -183v80h32q41 0 66 28t25 73v546h81v-542q0 -83 -47 -134t-125 -51h-32z" />
    <glyph glyph-name="circumflex" unicode="&#x2c6;" horiz-adv-x="328" 
d="M18 634l112 146h67l112 -146h-79l-66 92l-67 -92h-79z" />
    <glyph glyph-name="caron" unicode="&#x2c7;" horiz-adv-x="328" 
d="M130 634l-112 146h79l67 -92l66 92h79l-112 -146h-67z" />
    <glyph glyph-name="uni02C9" unicode="&#x2c9;" horiz-adv-x="360" 
d="M69 750h221v-63h-221v63z" />
    <glyph glyph-name="breve" unicode="&#x2d8;" horiz-adv-x="324" 
d="M162 662q-49 0 -81 30t-32 78v10h58v-10q0 -25 15.5 -40.5t39.5 -15.5t39 15.5t15 40.5v10h57v-10q0 -48 -31 -78t-80 -30z" />
    <glyph glyph-name="dotaccent" unicode="&#x2d9;" horiz-adv-x="210" 
d="M69 633v117h72v-117h-72z" />
    <glyph glyph-name="ring" unicode="&#x2da;" horiz-adv-x="291" 
d="M145 592q-39 0 -66.5 26.5t-27.5 67.5t27.5 67.5t66.5 26.5t66.5 -26.5t27.5 -67.5t-27.5 -67.5t-66.5 -26.5zM145 645q17 0 29.5 11.5t12.5 29.5t-12.5 29.5t-29.5 11.5q-16 0 -28.5 -11.5t-12.5 -29.5t12.5 -29.5t28.5 -11.5z" />
    <glyph glyph-name="ogonek" unicode="&#x2db;" horiz-adv-x="223" 
d="M166 -213q-58 0 -90.5 27.5t-32.5 73.5q0 80 106 143h16v-31q-59 -48 -59 -99q0 -24 17 -38t47 -14h15v-62h-19z" />
    <glyph glyph-name="tilde" unicode="&#x2dc;" horiz-adv-x="382" 
d="M256 676q-32 0 -66 24l-12.5 9.5l-12 9t-9.5 5t-11 2.5q-19 0 -19 -26v-19h-65v23q0 37 18 56.5t47 19.5q34 0 68 -25q31 -25 44 -25q19 0 19 27v21h64v-27q0 -36 -18 -55.5t-47 -19.5z" />
    <glyph glyph-name="hungarumlaut" unicode="&#x2dd;" horiz-adv-x="363" 
d="M36 608l66 172h85l-89 -172h-62zM186 608l66 172h85l-89 -172h-62z" />
    <glyph glyph-name="uni0326" unicode="&#x326;" horiz-adv-x="0" 
d="M-155 -220l24 159h92l-61 -159h-55z" />
    <glyph glyph-name="uni0394" unicode="&#x394;" horiz-adv-x="459" 
d="M25 0l160 750h90l159 -750h-409zM127 84h205l-102 507z" />
    <glyph glyph-name="uni03A9" unicode="&#x3a9;" horiz-adv-x="597" 
d="M482 84h81v-84h-235v84q43 0 69 27.5t26 73.5v366q0 59 -34.5 95t-90.5 36t-90 -36t-34 -95v-366q0 -46 25.5 -73.5t68.5 -27.5v-84h-235v84h82q-25 45 -25 101v366q0 97 57 156t151 59t151.5 -59t57.5 -156v-366q0 -56 -25 -101z" />
    <glyph glyph-name="pi" unicode="&#x3c0;" horiz-adv-x="530" 
d="M477 -6q-78 0 -125 48.5t-47 131.5v295h-124v-469h-80v469h-96v75h503v-75h-123v-295q0 -45 25 -72.5t67 -27.5h31v-80h-31z" />
    <glyph glyph-name="Wgrave" unicode="&#x1e80;" horiz-adv-x="654" 
d="M361 814h-62l-90 172h86zM531 750h86l-103 -750h-90l-96 519l-98 -519h-90l-103 750h86l72 -561l95 561h74l95 -561z" />
    <glyph glyph-name="wgrave" unicode="&#x1e81;" horiz-adv-x="559" 
d="M313 608h-62l-90 172h86zM450 544h84l-88 -544h-89l-77 372l-78 -372h-89l-88 544h83l54 -416l80 416h75l80 -416z" />
    <glyph glyph-name="Wacute" unicode="&#x1e82;" horiz-adv-x="654" 
d="M447 986l-89 -172h-62l66 172h85zM531 750h86l-103 -750h-90l-96 519l-98 -519h-90l-103 750h86l72 -561l95 561h74l95 -561z" />
    <glyph glyph-name="wacute" unicode="&#x1e83;" horiz-adv-x="559" 
d="M399 780l-89 -172h-62l66 172h85zM450 544h84l-88 -544h-89l-77 372l-78 -372h-89l-88 544h83l54 -416l80 416h75l80 -416z" />
    <glyph glyph-name="Wdieresis" unicode="&#x1e84;" horiz-adv-x="654" 
d="M295 986v-117h-72v117h72zM437 986v-117h-71v117h71zM531 750h86l-103 -750h-90l-96 519l-98 -519h-90l-103 750h86l72 -561l95 561h74l95 -561z" />
    <glyph glyph-name="wdieresis" unicode="&#x1e85;" horiz-adv-x="559" 
d="M247 780v-117h-72v117h72zM389 780v-117h-71v117h71zM450 544h84l-88 -544h-89l-77 372l-78 -372h-89l-88 544h83l54 -416l80 416h75l80 -416z" />
    <glyph glyph-name="endash" unicode="&#x2013;" horiz-adv-x="526" 
d="M69 230v84h387v-84h-387z" />
    <glyph glyph-name="emdash" unicode="&#x2014;" horiz-adv-x="626" 
d="M69 230v84h487v-84h-487z" />
    <glyph glyph-name="quoteleft" unicode="&#x2018;" horiz-adv-x="237" 
d="M77 526v137l26 87h50l-26 -87h34v-137h-84z" />
    <glyph glyph-name="quoteright" unicode="&#x2019;" horiz-adv-x="237" 
d="M84 526l26 86h-34v138h84v-138l-26 -86h-50z" />
    <glyph glyph-name="quotesinglbase" unicode="&#x201a;" horiz-adv-x="237" 
d="M84 -87l26 87h-34v138h84v-138l-26 -87h-50z" />
    <glyph glyph-name="quotedblleft" unicode="&#x201c;" horiz-adv-x="381" 
d="M77 526v137l26 87h50l-26 -87h34v-137h-84zM221 526v137l26 87h50l-26 -87h34v-137h-84z" />
    <glyph glyph-name="quotedblright" unicode="&#x201d;" horiz-adv-x="381" 
d="M84 526l26 86h-34v138h84v-138l-26 -86h-50zM228 526l26 86h-34v138h84v-138l-26 -86h-50z" />
    <glyph glyph-name="quotedblbase" unicode="&#x201e;" horiz-adv-x="381" 
d="M84 -87l26 87h-34v138h84v-138l-26 -87h-50zM228 -87l26 87h-34v138h84v-138l-26 -87h-50z" />
    <glyph glyph-name="dagger" unicode="&#x2020;" horiz-adv-x="421" 
d="M171 277v273h-123v76h123v124h79v-124h123v-76h-123v-273h-79z" />
    <glyph glyph-name="daggerdbl" unicode="&#x2021;" horiz-adv-x="465" 
d="M193 277v125h-123v75h123v73h-123v76h123v124h79v-124h123v-76h-123v-73h123v-75h-123v-125h-79z" />
    <glyph glyph-name="bullet" unicode="&#x2022;" horiz-adv-x="360" 
d="M180 168q-43 0 -73.5 30.5t-30.5 73.5q0 42 30.5 73t73.5 31q42 0 72.5 -31t30.5 -73q0 -43 -30 -73.5t-73 -30.5z" />
    <glyph glyph-name="ellipsis" unicode="&#x2026;" horiz-adv-x="644" 
d="M96 0v125h84v-125h-84zM280 0v125h84v-125h-84zM464 0v125h84v-125h-84z" />
    <glyph glyph-name="perthousand" unicode="&#x2030;" horiz-adv-x="1012" 
d="M174 407q-55 0 -88.5 34t-33.5 89v109q0 56 33.5 90t88.5 34q54 0 87.5 -34.5t33.5 -89.5v-109q0 -55 -33.5 -89t-87.5 -34zM155 0l329 750h71l-329 -750h-71zM174 472q25 0 40 16t15 42v109q0 26 -15 42.5t-40 16.5t-40.5 -16.5t-15.5 -42.5v-109q0 -26 15.5 -42
t40.5 -16zM536 -13q-54 0 -87.5 34t-33.5 89v109q0 55 33.5 89.5t87.5 34.5q55 0 88 -34t33 -90v-109q0 -56 -33 -89.5t-88 -33.5zM839 -13q-55 0 -88.5 34t-33.5 89v109q0 56 33.5 90t88.5 34t88 -34t33 -90v-109q0 -56 -33 -89.5t-88 -33.5zM536 52q25 0 40 16t15 42v109
q0 26 -15 42.5t-40 16.5t-40.5 -16.5t-15.5 -42.5v-109q0 -26 15.5 -42t40.5 -16zM839 52q25 0 40 16t15 42v109q0 26 -15 42.5t-40 16.5t-40.5 -16.5t-15.5 -42.5v-109q0 -26 15.5 -42t40.5 -16z" />
    <glyph glyph-name="guilsinglleft" unicode="&#x2039;" horiz-adv-x="294" 
d="M246 0l-223 220v48l223 220v-98l-143 -146l143 -146v-98z" />
    <glyph glyph-name="guilsinglright" unicode="&#x203a;" horiz-adv-x="294" 
d="M48 0v98l143 146l-143 146v98l223 -220v-48z" />
    <glyph glyph-name="fraction" unicode="&#x2044;" horiz-adv-x="208" 
d="M-96 0l329 750h71l-329 -750h-71z" />
    <glyph glyph-name="uni2070" unicode="&#x2070;" horiz-adv-x="319" 
d="M160 790q48 0 78 -31t30 -80v-248q0 -49 -30 -80t-78 -31q-49 0 -79 30.5t-30 80.5v248q0 50 30 80.5t79 30.5zM160 731q-22 0 -35.5 -14.5t-13.5 -37.5v-228l77 272q-13 8 -28 8zM160 380q22 0 35 14t13 37v229l-77 -272q13 -8 29 -8z" />
    <glyph glyph-name="uni2074" unicode="&#x2074;" horiz-adv-x="296" 
d="M170 330v89h-161v54l165 307h55v-301h39v-60h-39v-89h-59zM71 479h99v188z" />
    <glyph glyph-name="uni2075" unicode="&#x2075;" horiz-adv-x="308" 
d="M161 320q-49 0 -79 30.5t-30 80.5v19h60v-19q0 -23 13.5 -37t35.5 -14t35 14t13 37v87q0 23 -13.5 37t-36.5 14q-22 0 -34.5 -14t-12.5 -37v-6h-60v268h208v-59h-148v-113q20 21 52 21q47 0 76 -31t29 -80v-87q0 -50 -29.5 -80.5t-78.5 -30.5z" />
    <glyph glyph-name="uni2076" unicode="&#x2076;" horiz-adv-x="313" 
d="M160 320q-49 0 -79 30.5t-30 80.5v248q0 50 30 80.5t79 30.5q48 0 78 -31t30 -80v-19h-60v19q0 23 -13 37.5t-35 14.5t-35.5 -14.5t-13.5 -37.5v-71q18 21 52 21q47 0 76 -31t29 -80v-87q0 -49 -30 -80t-78 -31zM160 380q22 0 35 14t13 37v87q0 23 -13.5 37t-36.5 14
q-22 0 -34.5 -14t-12.5 -37v-87q0 -23 13.5 -37t35.5 -14z" />
    <glyph glyph-name="uni2077" unicode="&#x2077;" horiz-adv-x="231" 
d="M42 330l114 391h-152v59h212v-54l-111 -396h-63z" />
    <glyph glyph-name="uni2078" unicode="&#x2078;" horiz-adv-x="312" 
d="M157 320q-49 0 -79 30.5t-30 80.5v48q0 52 32 81q-32 29 -32 81v38q0 50 30 80.5t79 30.5q48 0 77.5 -30.5t29.5 -80.5v-38q0 -52 -32 -81q32 -29 32 -81v-48q0 -50 -29.5 -80.5t-77.5 -30.5zM157 590q22 0 35 14t13 37v38q0 23 -13.5 37.5t-34.5 14.5q-22 0 -36 -14.5
t-14 -37.5v-38q0 -23 13.5 -37t36.5 -14zM157 380q21 0 34.5 14.5t13.5 36.5v48q0 23 -13.5 37t-34.5 14q-23 0 -36.5 -14t-13.5 -37v-48q0 -23 14 -37t36 -14z" />
    <glyph glyph-name="uni2079" unicode="&#x2079;" horiz-adv-x="313" 
d="M154 320q-49 0 -79 30.5t-30 80.5v19h60v-19q0 -23 13.5 -37t35.5 -14t35 14t13 37v71q-18 -21 -52 -21q-47 0 -76 31t-29 80v87q0 50 30 80.5t79 30.5t78.5 -30.5t29.5 -80.5v-248q0 -50 -29.5 -80.5t-78.5 -30.5zM155 541q22 0 34.5 14t12.5 37v87q0 23 -13 37.5
t-35 14.5t-35.5 -14.5t-13.5 -37.5v-87q0 -23 13.5 -37t36.5 -14z" />
    <glyph glyph-name="uni2080" unicode="&#x2080;" horiz-adv-x="319" 
d="M160 430q48 0 78 -31t30 -80v-248q0 -49 -30 -80t-78 -31q-49 0 -79 30.5t-30 80.5v248q0 50 30 80.5t79 30.5zM160 371q-22 0 -35.5 -14.5t-13.5 -37.5v-228l77 272q-13 8 -28 8zM160 20q22 0 35 14t13 37v229l-77 -272q13 -8 29 -8z" />
    <glyph glyph-name="uni2081" unicode="&#x2081;" horiz-adv-x="196" 
d="M77 -30v339h-65v59h15q23 0 36.5 12t13.5 33v7h59v-450h-59z" />
    <glyph glyph-name="uni2082" unicode="&#x2082;" horiz-adv-x="283" 
d="M31 -30v53q0 38 16 70t39.5 53.5t46.5 40.5t39 40t16 43v49q0 23 -13.5 37.5t-35.5 14.5t-35 -14.5t-13 -37.5v-19h-60v19q0 49 30 80t78 31q49 0 79 -30.5t30 -80.5v-49q0 -30 -16 -57t-38.5 -47l-45 -39.5t-38.5 -42.5t-16 -48v-6h154v-60h-217z" />
    <glyph glyph-name="uni2083" unicode="&#x2083;" horiz-adv-x="294" 
d="M138 -40q-49 0 -79 30.5t-30 80.5v19h60v-19q0 -23 13.5 -37t35.5 -14t35.5 14t13.5 37v49q0 23 -13.5 37t-35.5 14h-40v60h40q22 0 35.5 14t13.5 37v37q0 23 -13.5 37.5t-35.5 14.5t-35.5 -14.5t-13.5 -37.5v-19h-60v19q0 50 30 80.5t79 30.5t78.5 -30.5t29.5 -80.5v-37
q0 -52 -33 -81q33 -30 33 -81v-49q0 -50 -29.5 -80.5t-78.5 -30.5z" />
    <glyph glyph-name="uni2084" unicode="&#x2084;" horiz-adv-x="296" 
d="M170 -30v89h-161v54l165 307h55v-301h39v-60h-39v-89h-59zM71 119h99v188z" />
    <glyph glyph-name="uni2085" unicode="&#x2085;" horiz-adv-x="308" 
d="M161 -40q-49 0 -79 30.5t-30 80.5v19h60v-19q0 -23 13.5 -37t35.5 -14t35 14t13 37v87q0 23 -13.5 37t-36.5 14q-22 0 -34.5 -14t-12.5 -37v-6h-60v268h208v-59h-148v-113q20 21 52 21q47 0 76 -31t29 -80v-87q0 -50 -29.5 -80.5t-78.5 -30.5z" />
    <glyph glyph-name="uni2086" unicode="&#x2086;" horiz-adv-x="313" 
d="M160 -40q-49 0 -79 30.5t-30 80.5v248q0 50 30 80.5t79 30.5q48 0 78 -31t30 -80v-19h-60v19q0 23 -13 37.5t-35 14.5t-35.5 -14.5t-13.5 -37.5v-71q18 21 52 21q47 0 76 -31t29 -80v-87q0 -49 -30 -80t-78 -31zM160 20q22 0 35 14t13 37v87q0 23 -13.5 37t-36.5 14
q-22 0 -34.5 -14t-12.5 -37v-87q0 -23 13.5 -37t35.5 -14z" />
    <glyph glyph-name="uni2087" unicode="&#x2087;" horiz-adv-x="231" 
d="M42 -30l114 391h-152v59h212v-54l-111 -396h-63z" />
    <glyph glyph-name="uni2088" unicode="&#x2088;" horiz-adv-x="312" 
d="M157 -40q-49 0 -79 30.5t-30 80.5v48q0 52 32 81q-32 29 -32 81v38q0 50 30 80.5t79 30.5q48 0 77.5 -30.5t29.5 -80.5v-38q0 -52 -32 -81q32 -29 32 -81v-48q0 -50 -29.5 -80.5t-77.5 -30.5zM157 230q22 0 35 14t13 37v38q0 23 -13.5 37.5t-34.5 14.5q-22 0 -36 -14.5
t-14 -37.5v-38q0 -23 13.5 -37t36.5 -14zM157 20q21 0 34.5 14.5t13.5 36.5v48q0 23 -13.5 37t-34.5 14q-23 0 -36.5 -14t-13.5 -37v-48q0 -23 14 -37t36 -14z" />
    <glyph glyph-name="uni2089" unicode="&#x2089;" horiz-adv-x="313" 
d="M154 -40q-49 0 -79 30.5t-30 80.5v19h60v-19q0 -23 13.5 -37t35.5 -14t35 14t13 37v71q-18 -21 -52 -21q-47 0 -76 31t-29 80v87q0 50 30 80.5t79 30.5t78.5 -30.5t29.5 -80.5v-248q0 -50 -29.5 -80.5t-78.5 -30.5zM155 181q22 0 34.5 14t12.5 37v87q0 23 -13 37.5
t-35 14.5t-35.5 -14.5t-13.5 -37.5v-87q0 -23 13.5 -37t36.5 -14z" />
    <glyph glyph-name="franc" unicode="&#x20a3;" horiz-adv-x="481" 
d="M428 666h-219v-297h192v-84h-192v-111h70v-77h-70v-97h-84v97h-76v77h76v576h303v-84z" />
    <glyph glyph-name="lira" unicode="&#x20a4;" horiz-adv-x="552" 
d="M500 551h-84v27q0 46 -25.5 73.5t-68.5 27.5t-69 -27.5t-26 -73.5v-164h138v-77h-138v-88h138v-76h-138v-96h220v-77h-375v77h71v96h-71v76h71v88h-71v77h71v164q0 83 49 134t130 51t129.5 -51t48.5 -134v-27z" />
    <glyph glyph-name="peseta" unicode="&#x20a7;" horiz-adv-x="563" 
d="M516 569v-77h-46q-1 -77 -46.5 -124t-119.5 -47h-101v-321h-84v492h-53v77h53v181h185q75 0 120.5 -47.5t45.5 -124.5v-9h46zM203 666v-97h183v9q0 40 -22.5 64t-59.5 24h-101zM304 405q37 0 59 24t23 63h-183v-87h101z" />
    <glyph glyph-name="Euro" unicode="&#x20ac;" horiz-adv-x="556" 
d="M489 551h-84v27q0 46 -25.5 73.5t-68.5 27.5t-69 -27.5t-26 -73.5v-72h138v-77h-138v-108h138v-76h-138v-73q0 -46 26 -73.5t69 -27.5t68.5 27.5t25.5 73.5v27h84v-27q0 -83 -48.5 -134t-129.5 -51t-130 51t-49 134v73h-71v76h71v108h-71v77h71v72q0 83 49 134t130 51
t129.5 -51t48.5 -134v-27z" />
    <glyph glyph-name="uni2113" unicode="&#x2113;" horiz-adv-x="592" 
d="M332 -12q-105 0 -159 124q-61 -28 -123 -48l-15 59q53 14 120 46q-17 63 -17 141q0 168 69 284.5t167 116.5q67 0 110.5 -56.5t43.5 -139.5q0 -63 -26.5 -121.5t-72 -105.5t-94 -82.5t-105.5 -66.5q37 -94 106 -94q45 0 80 37.5t42 94.5l59 -7q-11 -80 -64 -131t-121 -51
zM217 202q105 58 175.5 137t70.5 176q0 58 -26 97.5t-66 39.5q-66 0 -116 -97t-51 -230q-1 -57 13 -123z" />
    <glyph glyph-name="trademark" unicode="&#x2122;" horiz-adv-x="695" 
d="M118 300v391h-72v59h205v-59h-73v-391h-60zM297 300v450h57l90 -345l90 345h58v-450h-56v262l-70 -262h-43l-70 262v-262h-56z" />
    <glyph glyph-name="estimated" unicode="&#x212e;" horiz-adv-x="712" 
d="M364 -16q-132 0 -217.5 82.5t-85.5 201.5q0 121 86 204.5t215 83.5q130 0 216 -83.5t86 -203.5v-6h-483q-3 0 -3 -5v-154q0 -8 8 -18q70 -84 178 -84q61 0 104 23t84 71h47q-47 -56 -100.5 -84t-134.5 -28zM181 276h364q2 0 2 7v155q0 10 -7 19q-41 43 -79 62.5t-99 19.5
q-108 0 -175 -85q-9 -10 -9 -19v-152q0 -7 3 -7z" />
    <glyph glyph-name="oneeighth" unicode="&#x215b;" horiz-adv-x="716" 
d="M77 300v345h-65v59h15q23 0 36.5 12t13.5 33v7h59v-456h-59zM100 0l329 750h71l-329 -750h-71zM561 -10q-49 0 -79 30.5t-30 80.5v48q0 52 32 81q-32 29 -32 81v38q0 50 30 80.5t79 30.5q48 0 77.5 -30.5t29.5 -80.5v-38q0 -52 -32 -81q32 -29 32 -81v-48
q0 -50 -29.5 -80.5t-77.5 -30.5zM561 260q22 0 35 14t13 37v38q0 23 -13.5 37.5t-34.5 14.5q-22 0 -36 -14.5t-14 -37.5v-38q0 -23 13.5 -37t36.5 -14zM561 50q21 0 34.5 14.5t13.5 36.5v48q0 23 -13.5 37t-34.5 14q-23 0 -36.5 -14t-13.5 -37v-48q0 -23 14 -37t36 -14z" />
    <glyph glyph-name="threeeighths" unicode="&#x215c;" horiz-adv-x="814" 
d="M138 290q-49 0 -79 30.5t-30 80.5v19h60v-19q0 -23 13.5 -37t35.5 -14t35.5 14t13.5 37v49q0 23 -13.5 37t-35.5 14h-40v60h40q22 0 35.5 14t13.5 37v37q0 23 -13.5 37.5t-35.5 14.5t-35.5 -14.5t-13.5 -37.5v-19h-60v19q0 50 30 80.5t79 30.5t78.5 -30.5t29.5 -80.5v-37
q0 -52 -33 -81q33 -30 33 -81v-49q0 -50 -29.5 -80.5t-78.5 -30.5zM198 0l329 750h71l-329 -750h-71zM659 -10q-49 0 -79 30.5t-30 80.5v48q0 52 32 81q-32 29 -32 81v38q0 50 30 80.5t79 30.5q48 0 77.5 -30.5t29.5 -80.5v-38q0 -52 -32 -81q32 -29 32 -81v-48
q0 -50 -29.5 -80.5t-77.5 -30.5zM659 260q22 0 35 14t13 37v38q0 23 -13.5 37.5t-34.5 14.5q-22 0 -36 -14.5t-14 -37.5v-38q0 -23 13.5 -37t36.5 -14zM659 50q21 0 34.5 14.5t13.5 36.5v48q0 23 -13.5 37t-34.5 14q-23 0 -36.5 -14t-13.5 -37v-48q0 -23 14 -37t36 -14z" />
    <glyph glyph-name="fiveeighths" unicode="&#x215d;" horiz-adv-x="828" 
d="M161 290q-49 0 -79 30.5t-30 80.5v19h60v-19q0 -23 13.5 -37t35.5 -14t35 14t13 37v87q0 23 -13.5 37t-36.5 14q-22 0 -34.5 -14t-12.5 -37v-6h-60v268h208v-59h-148v-113q20 21 52 21q47 0 76 -31t29 -80v-87q0 -50 -29.5 -80.5t-78.5 -30.5zM212 0l329 750h71
l-329 -750h-71zM673 -10q-49 0 -79 30.5t-30 80.5v48q0 52 32 81q-32 29 -32 81v38q0 50 30 80.5t79 30.5q48 0 77.5 -30.5t29.5 -80.5v-38q0 -52 -32 -81q32 -29 32 -81v-48q0 -50 -29.5 -80.5t-77.5 -30.5zM673 260q22 0 35 14t13 37v38q0 23 -13.5 37.5t-34.5 14.5
q-22 0 -36 -14.5t-14 -37.5v-38q0 -23 13.5 -37t36.5 -14zM673 50q21 0 34.5 14.5t13.5 36.5v48q0 23 -13.5 37t-34.5 14q-23 0 -36.5 -14t-13.5 -37v-48q0 -23 14 -37t36 -14z" />
    <glyph glyph-name="seveneighths" unicode="&#x215e;" horiz-adv-x="751" 
d="M42 300l114 391h-152v59h212v-54l-111 -396h-63zM135 0l329 750h71l-329 -750h-71zM596 -10q-49 0 -79 30.5t-30 80.5v48q0 52 32 81q-32 29 -32 81v38q0 50 30 80.5t79 30.5q48 0 77.5 -30.5t29.5 -80.5v-38q0 -52 -32 -81q32 -29 32 -81v-48q0 -50 -29.5 -80.5
t-77.5 -30.5zM596 260q22 0 35 14t13 37v38q0 23 -13.5 37.5t-34.5 14.5q-22 0 -36 -14.5t-14 -37.5v-38q0 -23 13.5 -37t36.5 -14zM596 50q21 0 34.5 14.5t13.5 36.5v48q0 23 -13.5 37t-34.5 14q-23 0 -36.5 -14t-13.5 -37v-48q0 -23 14 -37t36 -14z" />
    <glyph glyph-name="arrowleft" unicode="&#x2190;" horiz-adv-x="567" 
d="M507 331v-78h-300v-125l-164 164l164 164v-125h300z" />
    <glyph glyph-name="arrowup" unicode="&#x2191;" horiz-adv-x="400" 
d="M364 360h-124v-300h-78v300h-126l164 164z" />
    <glyph glyph-name="arrowright" unicode="&#x2192;" horiz-adv-x="567" 
d="M523 292l-163 -164v125h-300v78h300v125z" />
    <glyph glyph-name="arrowdown" unicode="&#x2193;" horiz-adv-x="400" 
d="M240 223h124l-164 -163l-164 163h126v301h78v-301z" />
    <glyph glyph-name="arrowboth" unicode="&#x2194;" horiz-adv-x="664" 
d="M207 128l-164 164l164 164v-125h250v125l163 -164l-163 -164v125h-250v-125z" />
    <glyph glyph-name="arrowupdn" unicode="&#x2195;" horiz-adv-x="415" 
d="M207 0l-163 163h124v250h-124l163 164l165 -164h-126v-250h126z" />
    <glyph glyph-name="uni2196" unicode="&#x2196;" horiz-adv-x="476" 
d="M438 155l-55 -55l-212 212l-88 -88v231l232 1l-89 -89z" />
    <glyph glyph-name="uni2197" unicode="&#x2197;" horiz-adv-x="476" 
d="M393 455v-231l-88 88l-212 -212l-55 55l212 212l-89 89z" />
    <glyph glyph-name="uni2198" unicode="&#x2198;" horiz-adv-x="476" 
d="M305 244l88 88v-231l-232 -1l89 89l-212 212l55 55z" />
    <glyph glyph-name="uni2199" unicode="&#x2199;" horiz-adv-x="476" 
d="M438 401l-212 -212l89 -89l-232 1v231l88 -88l212 212z" />
    <glyph glyph-name="partialdiff" unicode="&#x2202;" horiz-adv-x="499" 
d="M249 750q68 0 110.5 -44t42.5 -116v-590h-80v35q-38 -47 -107 -47q-68 0 -111.5 45t-43.5 129v120q0 84 43.5 129t111.5 45q69 0 107 -47v181q0 42 -25 68t-66 26h-23v66h41zM231 68q43 0 67 25t24 68v121q0 43 -24 68.5t-67 25.5q-42 0 -66.5 -26t-24.5 -68v-120
q0 -42 24.5 -68t66.5 -26z" />
    <glyph glyph-name="emptyset" unicode="&#x2205;" horiz-adv-x="715" 
d="M535 539q120 -84 120 -248q0 -135 -84.5 -219t-213.5 -84q-61 0 -118 22l-35 -62h-83l54 97q-117 85 -117 246q0 135 85 218.5t214 83.5q60 0 114 -20l33 58h83zM137 291q0 -112 78 -175l217 386q-35 12 -75 12q-94 0 -157 -61.5t-63 -161.5zM357 67q94 0 156.5 62.5
t62.5 161.5q0 115 -80 177l-218 -388q41 -13 79 -13z" />
    <glyph glyph-name="product" unicode="&#x220f;" horiz-adv-x="612" 
d="M146 -120v786h-113v84h546v-84h-114v-786h-84v786h-151v-786h-84z" />
    <glyph glyph-name="summation" unicode="&#x2211;" horiz-adv-x="450" 
d="M53 -120v64l148 371l-148 371v64h352v-84h-262l141 -351l-142 -351h263v-84h-352z" />
    <glyph glyph-name="minus" unicode="&#x2212;" horiz-adv-x="594" 
d="M103 230v84h388v-84h-388z" />
    <glyph glyph-name="uni2215" unicode="&#x2215;" horiz-adv-x="423" 
d="M45 -50l268 830h87l-268 -830h-87z" />
    <glyph glyph-name="uni2219" unicode="&#x2219;" horiz-adv-x="408" 
d="M230 146q-52 0 -89 37t-37 89q0 51 37 88.5t89 37.5q51 0 87.5 -37.5t36.5 -88.5q0 -52 -36 -89t-88 -37z" />
    <glyph glyph-name="radical" unicode="&#x221a;" horiz-adv-x="585" 
d="M157 0l-115 411h84l79 -287l169 626h177v-79h-112l-185 -671h-97z" />
    <glyph glyph-name="infinity" unicode="&#x221e;" horiz-adv-x="786" 
d="M567 444q62 0 102 -42.5t40 -106.5t-40 -106t-102 -42h-18q-31 0 -62.5 19t-50 38t-43.5 50q-25 -31 -43.5 -50t-50 -38t-62.5 -19h-19q-62 0 -101.5 42t-39.5 106t39.5 106.5t101.5 42.5h19q31 0 62.5 -17t48.5 -34t45 -48q26 30 44.5 47.5t49.5 34.5t62 17h18zM242 208
q9 0 17.5 2t17.5 8l16 10.5t17 15l15.5 16.5l17 19.5t17.5 19.5l-16 16.5l-17 17.5l-15.5 15t-17 14l-16 10t-18.5 8t-18 2h-18q-34 0 -56 -25.5t-22 -61.5t22 -61.5t56 -25.5h18zM562 208q34 0 56 25.5t22 61.5t-22 61.5t-56 25.5h-18q-11 0 -22 -4t-19 -8.5t-20.5 -15
t-18.5 -16t-20.5 -20.5l-18.5 -19q4 -5 17 -20t18 -19.5t15.5 -16t17 -15.5l16 -10t18 -8t17.5 -2h18z" />
    <glyph glyph-name="integral" unicode="&#x222b;" horiz-adv-x="409" 
d="M32 -180v80h40q42 0 67.5 28t25.5 73v578q0 80 47.5 130.5t124.5 50.5h40v-80h-40q-42 0 -67 -28t-25 -73v-578q0 -80 -47.5 -130.5t-125.5 -50.5h-40z" />
    <glyph glyph-name="approxequal" unicode="&#x2248;" horiz-adv-x="549" 
d="M72 325v21q0 54 30 85t84 31q35 0 64.5 -15t52.5 -30t43 -15q40 0 40 42v20h80v-26q0 -52 -27.5 -82t-73.5 -30q-40 0 -90 32t-75 32q-22 0 -35.5 -12.5t-13.5 -34.5v-18h-79zM72 71v21q0 54 30 84.5t84 30.5q35 0 64.5 -15t52.5 -30t43 -15q40 0 40 42v20h80v-25
q0 -52 -27.5 -82t-73.5 -30q-40 0 -90 32t-75 32q-22 0 -35.5 -13t-13.5 -35v-17h-79z" />
    <glyph glyph-name="notequal" unicode="&#x2260;" horiz-adv-x="481" 
d="M409 330h-117l-43 -116h160v-84h-191l-49 -130h-64l49 130h-82v84h113l43 116h-156v84h187l49 130h64l-49 -130h86v-84z" />
    <glyph glyph-name="lessequal" unicode="&#x2264;" horiz-adv-x="450" 
d="M380 136l-328 234v63l328 232v-88l-242 -176l242 -177v-88zM52 0v74h328v-74h-328z" />
    <glyph glyph-name="greaterequal" unicode="&#x2265;" horiz-adv-x="450" 
d="M68 136v88l243 177l-243 176v88l329 -232v-63zM68 0v74h329v-74h-329z" />
    <glyph glyph-name="lozenge" unicode="&#x25ca;" horiz-adv-x="456" 
d="M180 0l-133 375l133 375h97l132 -375l-132 -375h-97zM228 113l94 262l-94 262l-95 -262z" />
    <glyph glyph-name="uniF8FF" unicode="&#xf8ff;" horiz-adv-x="741" 
d="M372 277v206h23v-131l73 77h28l-54 -58l58 -94h-28l-46 76l-31 -32v-44h-23zM149 277q-45 0 -45 42v90h-35v20h35v37h23v-37h39v-20h-39v-90q0 -20 24 -20h15v-22h-17zM263 273q-34 0 -55 22t-21 59q0 35 21 57t55 22q35 0 56 -22t21 -58t-21 -58t-56 -22zM588 273
q-35 0 -56 22t-21 59q0 35 21 57t55 22q35 0 56 -22t21 -58t-21 -58t-55 -22zM263 293q25 0 39.5 16.5t14.5 44.5q0 26 -14.5 42.5t-39.5 16.5q-24 0 -39 -16.5t-15 -42.5q0 -28 15 -44.5t39 -16.5zM588 293q25 0 39 16.5t14 44.5q0 27 -14.5 43t-38.5 16q-25 0 -39.5 -16.5
t-14.5 -42.5q0 -28 14.5 -44.5t39.5 -16.5zM149 53q-45 0 -45 42v90h-35v20h35v37h23v-37h39v-20h-39v-90q0 -20 24 -20h15v-22h-17zM355 5v200h23v-22q20 26 52 26q31 0 50 -22t19 -58t-19 -58t-50 -22q-34 0 -52 26v-70h-23zM599 49q-35 0 -56 22t-21 58t20.5 58t54.5 22
q33 0 52.5 -21t19.5 -56q0 -9 -1 -13h-123q3 -23 17.5 -36.5t36.5 -13.5q16 0 28.5 8t15.5 20h24q-4 -22 -22.5 -35t-45.5 -13zM191 0v22h17q23 0 30 16l6 14l-63 153h26l51 -126l46 126h26l-66 -166q-9 -22 -21 -30.5t-35 -8.5h-17zM426 69q22 0 36 16t14 44t-14 44t-36 16
q-21 0 -34.5 -16t-13.5 -43v-2q0 -27 13.5 -43t34.5 -16zM545 139h102q0 23 -13.5 36.5t-36.5 13.5q-47 0 -52 -50z" />
    <glyph glyph-name="G.ss03" horiz-adv-x="494" 
d="M253 -16q-81 0 -129.5 51t-48.5 134v412q0 83 48.5 134t129.5 51t130 -51t49 -134v-27h-84v27q0 46 -26 73.5t-69 27.5t-68.5 -27.5t-25.5 -73.5v-412q0 -46 25.5 -73.5t68.5 -27.5t69 27.5t26 73.5v209h-95v84h179v-293q0 -83 -49 -134t-130 -51z" />
    <glyph glyph-name="Gbreve.ss03" horiz-adv-x="494" 
d="M253 868q-49 0 -81 30t-32 78v10h58v-10q0 -25 15.5 -40.5t39.5 -15.5t39 15.5t15 40.5v10h57v-10q0 -48 -31 -78t-80 -30zM253 -16q-81 0 -129.5 51t-48.5 134v412q0 83 48.5 134t129.5 51t130 -51t49 -134v-27h-84v27q0 46 -26 73.5t-69 27.5t-68.5 -27.5t-25.5 -73.5
v-412q0 -46 25.5 -73.5t68.5 -27.5t69 27.5t26 73.5v209h-95v84h179v-293q0 -83 -49 -134t-130 -51z" />
    <glyph glyph-name="Gcircumflex.ss03" horiz-adv-x="494" 
d="M107 840l112 146h67l112 -146h-79l-66 92l-67 -92h-79zM253 -16q-81 0 -129.5 51t-48.5 134v412q0 83 48.5 134t129.5 51t130 -51t49 -134v-27h-84v27q0 46 -26 73.5t-69 27.5t-68.5 -27.5t-25.5 -73.5v-412q0 -46 25.5 -73.5t68.5 -27.5t69 27.5t26 73.5v209h-95v84h179
v-293q0 -83 -49 -134t-130 -51z" />
    <glyph glyph-name="Gcommaaccent.ss03" horiz-adv-x="494" 
d="M253 -16q-81 0 -129.5 51t-48.5 134v412q0 83 48.5 134t129.5 51t130 -51t49 -134v-27h-84v27q0 46 -26 73.5t-69 27.5t-68.5 -27.5t-25.5 -73.5v-412q0 -46 25.5 -73.5t68.5 -27.5t69 27.5t26 73.5v209h-95v84h179v-293q0 -83 -49 -134t-130 -51zM191 -220l24 159h92
l-61 -159h-55z" />
    <glyph glyph-name="Gdotaccent.ss03" horiz-adv-x="494" 
d="M217 839v117h72v-117h-72zM253 -16q-81 0 -129.5 51t-48.5 134v412q0 83 48.5 134t129.5 51t130 -51t49 -134v-27h-84v27q0 46 -26 73.5t-69 27.5t-68.5 -27.5t-25.5 -73.5v-412q0 -46 25.5 -73.5t68.5 -27.5t69 27.5t26 73.5v209h-95v84h179v-293q0 -83 -49 -134
t-130 -51z" />
    <glyph glyph-name="IJ.ss04" horiz-adv-x="711" 
d="M170 0h-84v750h84v-750zM453 -6q-81 0 -130 51t-49 134v10h84v-10q0 -46 26 -73.5t69 -27.5t68.5 27.5t25.5 73.5v571h84v-571q0 -83 -48.5 -134t-129.5 -51z" />
    <glyph glyph-name="J.ss04" horiz-adv-x="455" 
d="M197 -6q-81 0 -130 51t-49 134v10h84v-10q0 -46 26 -73.5t69 -27.5t68.5 27.5t25.5 73.5v571h84v-571q0 -83 -48.5 -134t-129.5 -51z" />
    <glyph glyph-name="Jcircumflex.ss04" horiz-adv-x="455" 
d="M186 840l112 146h67l112 -146h-79l-66 92l-67 -92h-79zM197 -6q-81 0 -130 51t-49 134v10h84v-10q0 -46 26 -73.5t69 -27.5t68.5 27.5t25.5 73.5v571h84v-571q0 -83 -48.5 -134t-129.5 -51z" />
    <glyph glyph-name="a.ss01" horiz-adv-x="468" 
d="M318 544h80v-544h-80v34q-40 -46 -106 -46q-69 0 -112.5 45t-43.5 129v220q0 84 43.5 129t112.5 45q67 0 106 -47v35zM227 68q43 0 67 25t24 68v221q0 43 -24 68.5t-67 25.5q-42 0 -66.5 -26t-24.5 -68v-220q0 -42 24.5 -68t66.5 -26z" />
    <glyph glyph-name="aacute.ss01" horiz-adv-x="468" 
d="M354 780l-89 -172h-62l66 172h85zM318 544h80v-544h-80v34q-40 -46 -106 -46q-69 0 -112.5 45t-43.5 129v220q0 84 43.5 129t112.5 45q67 0 106 -47v35zM227 68q43 0 67 25t24 68v221q0 43 -24 68.5t-67 25.5q-42 0 -66.5 -26t-24.5 -68v-220q0 -42 24.5 -68t66.5 -26z
" />
    <glyph glyph-name="abreve.ss01" horiz-adv-x="468" 
d="M235 662q-49 0 -81 30t-32 78v10h58v-10q0 -25 15.5 -40.5t39.5 -15.5t39 15.5t15 40.5v10h57v-10q0 -48 -31 -78t-80 -30zM318 544h80v-544h-80v34q-40 -46 -106 -46q-69 0 -112.5 45t-43.5 129v220q0 84 43.5 129t112.5 45q67 0 106 -47v35zM227 68q43 0 67 25t24 68
v221q0 43 -24 68.5t-67 25.5q-42 0 -66.5 -26t-24.5 -68v-220q0 -42 24.5 -68t66.5 -26z" />
    <glyph glyph-name="acircumflex.ss01" horiz-adv-x="468" 
d="M235 726l-67 -92h-79l112 146h67l112 -146h-79zM318 544h80v-544h-80v34q-40 -46 -106 -46q-69 0 -112.5 45t-43.5 129v220q0 84 43.5 129t112.5 45q67 0 106 -47v35zM227 68q43 0 67 25t24 68v221q0 43 -24 68.5t-67 25.5q-42 0 -66.5 -26t-24.5 -68v-220
q0 -42 24.5 -68t66.5 -26z" />
    <glyph glyph-name="adieresis.ss01" horiz-adv-x="468" 
d="M202 780v-117h-72v117h72zM344 780v-117h-71v117h71zM318 544h80v-544h-80v34q-40 -46 -106 -46q-69 0 -112.5 45t-43.5 129v220q0 84 43.5 129t112.5 45q67 0 106 -47v35zM227 68q43 0 67 25t24 68v221q0 43 -24 68.5t-67 25.5q-42 0 -66.5 -26t-24.5 -68v-220
q0 -42 24.5 -68t66.5 -26z" />
    <glyph glyph-name="agrave.ss01" horiz-adv-x="468" 
d="M268 608h-62l-90 172h86zM318 544h80v-544h-80v34q-40 -46 -106 -46q-69 0 -112.5 45t-43.5 129v220q0 84 43.5 129t112.5 45q67 0 106 -47v35zM227 68q43 0 67 25t24 68v221q0 43 -24 68.5t-67 25.5q-42 0 -66.5 -26t-24.5 -68v-220q0 -42 24.5 -68t66.5 -26z" />
    <glyph glyph-name="amacron.ss01" horiz-adv-x="468" 
d="M345 688v-63h-221v63h221zM318 544h80v-544h-80v34q-40 -46 -106 -46q-69 0 -112.5 45t-43.5 129v220q0 84 43.5 129t112.5 45q67 0 106 -47v35zM227 68q43 0 67 25t24 68v221q0 43 -24 68.5t-67 25.5q-42 0 -66.5 -26t-24.5 -68v-220q0 -42 24.5 -68t66.5 -26z" />
    <glyph glyph-name="aogonek.ss01" horiz-adv-x="452" 
d="M373 0q-59 -48 -59 -99q0 -24 17 -38t47 -14h15v-62h-19q-58 0 -90.5 27.5t-32.5 73.5q0 65 67 117v29q-40 -46 -106 -46q-69 0 -112.5 45t-43.5 129v220q0 84 43.5 129t112.5 45q67 0 106 -47v35h80v-544h-25zM227 68q43 0 67 25t24 68v221q0 43 -24 68.5t-67 25.5
q-42 0 -66.5 -26t-24.5 -68v-220q0 -42 24.5 -68t66.5 -26z" />
    <glyph glyph-name="aring.ss01" horiz-adv-x="468" 
d="M235 573q-39 0 -66.5 26.5t-27.5 67.5t27.5 67.5t66.5 26.5t66.5 -26.5t27.5 -67.5t-27.5 -67.5t-66.5 -26.5zM235 708q-16 0 -28.5 -11.5t-12.5 -29.5t12.5 -29.5t28.5 -11.5q17 0 29.5 11.5t12.5 29.5t-12.5 29.5t-29.5 11.5zM318 544h80v-544h-80v34q-40 -46 -106 -46
q-69 0 -112.5 45t-43.5 129v220q0 84 43.5 129t112.5 45q67 0 106 -47v35zM227 68q43 0 67 25t24 68v221q0 43 -24 68.5t-67 25.5q-42 0 -66.5 -26t-24.5 -68v-220q0 -42 24.5 -68t66.5 -26z" />
    <glyph glyph-name="atilde.ss01" horiz-adv-x="468" 
d="M168 653v-19h-65v23q0 37 18 56.5t47 19.5q34 0 68 -25q31 -25 44 -25q19 0 19 27v21h64v-27q0 -36 -18 -55.5t-47 -19.5q-32 0 -66 24l-12.5 9.5l-12 9t-9.5 5t-11 2.5q-19 0 -19 -26zM318 544h80v-544h-80v34q-40 -46 -106 -46q-69 0 -112.5 45t-43.5 129v220
q0 84 43.5 129t112.5 45q67 0 106 -47v35zM227 68q43 0 67 25t24 68v221q0 43 -24 68.5t-67 25.5q-42 0 -66.5 -26t-24.5 -68v-220q0 -42 24.5 -68t66.5 -26z" />
    <glyph glyph-name="y.ss02" horiz-adv-x="463" 
d="M313 544h81v-550q0 -79 -48 -128t-125 -49t-124 49t-47 129v14h80v-18q0 -42 24.5 -68t66.5 -26t67 26t25 68v113q-40 -46 -106 -46q-69 0 -112.5 45t-43.5 129v312h81v-312q0 -42 24 -68t66 -26q43 0 67 25t24 68v313z" />
    <glyph glyph-name="yacute.ss02" horiz-adv-x="463" 
d="M341 780l-89 -172h-62l66 172h85zM313 544h81v-550q0 -79 -48 -128t-125 -49t-124 49t-47 129v14h80v-18q0 -42 24.5 -68t66.5 -26t67 26t25 68v113q-40 -46 -106 -46q-69 0 -112.5 45t-43.5 129v312h81v-312q0 -42 24 -68t66 -26q43 0 67 25t24 68v313z" />
    <glyph glyph-name="ycircumflex.ss02" horiz-adv-x="463" 
d="M222 726l-67 -92h-79l112 146h67l112 -146h-79zM313 544h81v-550q0 -79 -48 -128t-125 -49t-124 49t-47 129v14h80v-18q0 -42 24.5 -68t66.5 -26t67 26t25 68v113q-40 -46 -106 -46q-69 0 -112.5 45t-43.5 129v312h81v-312q0 -42 24 -68t66 -26q43 0 67 25t24 68v313z
" />
    <glyph glyph-name="ydieresis.ss02" horiz-adv-x="463" 
d="M189 780v-117h-72v117h72zM331 780v-117h-71v117h71zM313 544h81v-550q0 -79 -48 -128t-125 -49t-124 49t-47 129v14h80v-18q0 -42 24.5 -68t66.5 -26t67 26t25 68v113q-40 -46 -106 -46q-69 0 -112.5 45t-43.5 129v312h81v-312q0 -42 24 -68t66 -26q43 0 67 25t24 68
v313z" />
    <glyph glyph-name="longs_t" horiz-adv-x="615" 
d="M105 0v468h-101v76h101v35q0 80 47.5 130.5t125.5 50.5h40v-80h-40q-42 0 -67.5 -28t-25.5 -73v-579h-80zM554 -6q-78 0 -125 48.5t-47 131.5v295h-96v75h96v136h80v-136h131v-75h-131v-295q0 -45 25 -72.5t67 -27.5h39v-80h-39z" />
    <glyph glyph-name="zero.tf" horiz-adv-x="480" 
d="M240 766q79 0 126.5 -51t47.5 -134v-412q0 -83 -47.5 -134t-126.5 -51t-127 51t-48 134v412q0 83 48 134t127 51zM149 581v-412q0 -15 3 -29l139 527q-21 15 -51 15q-41 0 -66 -27.5t-25 -73.5zM331 169v412q0 15 -3 29l-139 -527q21 -15 51 -15q41 0 66 27.5t25 73.5z
" />
    <glyph glyph-name="one.tf" horiz-adv-x="480" 
d="M36 0v84h162v496h-118v84h21q46 0 71.5 20t25.5 55v11h84v-666h161v-84h-407z" />
    <glyph glyph-name="two.tf" horiz-adv-x="480" 
d="M424 507q0 -49 -29.5 -95.5t-71 -83l-83 -72.5t-71 -77.5t-29.5 -84.5v-10h284v-84h-372v72q0 46 16 87.5t41.5 73t56 60t61 54t56 50t41.5 53t16 57.5v74q0 46 -28 73.5t-74 27.5t-74 -27.5t-28 -73.5v-27h-84v27q0 83 51 134t135 51t135 -51t51 -134v-74z" />
    <glyph glyph-name="three.tf" horiz-adv-x="480" 
d="M411 527q0 -94 -62 -142q62 -51 62 -144v-72q0 -83 -50.5 -134t-132.5 -51t-132.5 51t-50.5 134v27h84v-27q0 -46 27.5 -73.5t71.5 -27.5q45 0 72 27.5t27 73.5v72q0 46 -27 73.5t-72 27.5h-63v84h63q45 0 72 27.5t27 73.5v54q0 46 -27 73.5t-72 27.5q-44 0 -71.5 -27.5
t-27.5 -73.5v-27h-84v27q0 83 50.5 134t132.5 51t132.5 -51t50.5 -134v-54z" />
    <glyph glyph-name="four.tf" horiz-adv-x="480" 
d="M384 241h68v-83h-68v-158h-84v158h-276v76l278 516h82v-509zM300 241v355l-188 -355h188z" />
    <glyph glyph-name="five.tf" horiz-adv-x="480" 
d="M253 500q78 0 126.5 -51t48.5 -134v-146q0 -83 -49 -134t-129 -51t-129 51t-49 134v27h84v-27q0 -46 25.5 -73.5t68.5 -27.5t68.5 27.5t25.5 73.5v146q0 46 -26.5 73.5t-71.5 27.5q-41 0 -65.5 -27.5t-24.5 -73.5v-10h-84v445h345v-84h-261v-206q37 40 97 40z" />
    <glyph glyph-name="six.tf" horiz-adv-x="480" 
d="M421 554h-84v27q0 46 -25.5 73.5t-66.5 27.5q-42 0 -67.5 -27.5t-25.5 -73.5v-121q35 40 96 40q77 0 125 -51t48 -134v-146q0 -83 -48.5 -134t-127.5 -51q-80 0 -128.5 51t-48.5 134v412q0 83 48.5 134t128.5 51q79 0 127.5 -51t48.5 -134v-27zM241 416
q-40 0 -64.5 -27.5t-24.5 -73.5v-146q0 -46 25.5 -73.5t67.5 -27.5q41 0 66.5 27.5t25.5 73.5v146q0 45 -26 73t-70 28z" />
    <glyph glyph-name="seven.tf" horiz-adv-x="480" 
d="M39 750h392v-75l-215 -675h-89l214 666h-302v84z" />
    <glyph glyph-name="eight.tf" horiz-adv-x="480" 
d="M417 526q0 -93 -58 -143q58 -50 58 -143v-71q0 -83 -48.5 -134t-128.5 -51t-128.5 51t-48.5 134v71q0 93 58 143q-58 50 -58 143v55q0 83 48.5 134t128.5 51t128.5 -51t48.5 -134v-55zM333 526v55q0 46 -25.5 73.5t-67.5 27.5t-67.5 -27.5t-25.5 -73.5v-55
q0 -46 25.5 -73.5t67.5 -27.5t67.5 27.5t25.5 73.5zM333 169v71q0 45 -25.5 73t-67.5 28t-67.5 -28t-25.5 -73v-71q0 -46 25.5 -73.5t67.5 -27.5t67.5 27.5t25.5 73.5z" />
    <glyph glyph-name="nine.tf" horiz-adv-x="480" 
d="M236 766q79 0 127.5 -51t48.5 -134v-412q0 -83 -48.5 -134t-127.5 -51q-80 0 -128.5 51t-48.5 134v27h84v-27q0 -46 25.5 -73.5t67.5 -27.5t67 27.5t25 73.5v121q-35 -40 -96 -40q-77 0 -125 51t-48 134v146q0 83 48.5 134t128.5 51zM239 334q41 0 65 27.5t24 73.5v146
q0 46 -25 73.5t-67 27.5t-67.5 -27.5t-25.5 -73.5v-146q0 -45 26 -73t70 -28z" />
    <glyph glyph-name="zero.dnom" horiz-adv-x="319" 
d="M160 460q48 0 78 -31t30 -80v-248q0 -49 -30 -80t-78 -31q-49 0 -79 30.5t-30 80.5v248q0 50 30 80.5t79 30.5zM160 401q-22 0 -35.5 -14.5t-13.5 -37.5v-228l77 272q-13 8 -28 8zM160 50q22 0 35 14t13 37v229l-77 -272q13 -8 29 -8z" />
    <glyph glyph-name="one.dnom" horiz-adv-x="196" 
d="M77 0v339h-65v59h15q23 0 36.5 12t13.5 33v7h59v-450h-59z" />
    <glyph glyph-name="two.dnom" horiz-adv-x="283" 
d="M31 0v53q0 38 16 70t39.5 53.5t46.5 40.5t39 40t16 43v49q0 23 -13.5 37.5t-35.5 14.5t-35 -14.5t-13 -37.5v-19h-60v19q0 49 30 80t78 31q49 0 79 -30.5t30 -80.5v-49q0 -30 -16 -57t-38.5 -47l-45 -39.5t-38.5 -42.5t-16 -48v-6h154v-60h-217z" />
    <glyph glyph-name="three.dnom" horiz-adv-x="294" 
d="M138 -10q-49 0 -79 30.5t-30 80.5v19h60v-19q0 -23 13.5 -37t35.5 -14t35.5 14t13.5 37v49q0 23 -13.5 37t-35.5 14h-40v60h40q22 0 35.5 14t13.5 37v37q0 23 -13.5 37.5t-35.5 14.5t-35.5 -14.5t-13.5 -37.5v-19h-60v19q0 50 30 80.5t79 30.5t78.5 -30.5t29.5 -80.5v-37
q0 -52 -33 -81q33 -30 33 -81v-49q0 -50 -29.5 -80.5t-78.5 -30.5z" />
    <glyph glyph-name="four.dnom" horiz-adv-x="296" 
d="M170 0v89h-161v54l165 307h55v-301h39v-60h-39v-89h-59zM71 149h99v188z" />
    <glyph glyph-name="five.dnom" horiz-adv-x="308" 
d="M161 -10q-49 0 -79 30.5t-30 80.5v19h60v-19q0 -23 13.5 -37t35.5 -14t35 14t13 37v87q0 23 -13.5 37t-36.5 14q-22 0 -34.5 -14t-12.5 -37v-6h-60v268h208v-59h-148v-113q20 21 52 21q47 0 76 -31t29 -80v-87q0 -50 -29.5 -80.5t-78.5 -30.5z" />
    <glyph glyph-name="six.dnom" horiz-adv-x="313" 
d="M160 -10q-49 0 -79 30.5t-30 80.5v248q0 50 30 80.5t79 30.5q48 0 78 -31t30 -80v-19h-60v19q0 23 -13 37.5t-35 14.5t-35.5 -14.5t-13.5 -37.5v-71q18 21 52 21q47 0 76 -31t29 -80v-87q0 -49 -30 -80t-78 -31zM160 50q22 0 35 14t13 37v87q0 23 -13.5 37t-36.5 14
q-22 0 -34.5 -14t-12.5 -37v-87q0 -23 13.5 -37t35.5 -14z" />
    <glyph glyph-name="seven.dnom" horiz-adv-x="231" 
d="M42 0l114 391h-152v59h212v-54l-111 -396h-63z" />
    <glyph glyph-name="eight.dnom" horiz-adv-x="312" 
d="M157 -10q-49 0 -79 30.5t-30 80.5v48q0 52 32 81q-32 29 -32 81v38q0 50 30 80.5t79 30.5q48 0 77.5 -30.5t29.5 -80.5v-38q0 -52 -32 -81q32 -29 32 -81v-48q0 -50 -29.5 -80.5t-77.5 -30.5zM157 260q22 0 35 14t13 37v38q0 23 -13.5 37.5t-34.5 14.5q-22 0 -36 -14.5
t-14 -37.5v-38q0 -23 13.5 -37t36.5 -14zM157 50q21 0 34.5 14.5t13.5 36.5v48q0 23 -13.5 37t-34.5 14q-23 0 -36.5 -14t-13.5 -37v-48q0 -23 14 -37t36 -14z" />
    <glyph glyph-name="nine.dnom" horiz-adv-x="313" 
d="M154 -10q-49 0 -79 30.5t-30 80.5v19h60v-19q0 -23 13.5 -37t35.5 -14t35 14t13 37v71q-18 -21 -52 -21q-47 0 -76 31t-29 80v87q0 50 30 80.5t79 30.5t78.5 -30.5t29.5 -80.5v-248q0 -50 -29.5 -80.5t-78.5 -30.5zM155 211q22 0 34.5 14t12.5 37v87q0 23 -13 37.5
t-35 14.5t-35.5 -14.5t-13.5 -37.5v-87q0 -23 13.5 -37t36.5 -14z" />
    <glyph glyph-name="zero.numr" horiz-adv-x="319" 
d="M160 760q48 0 78 -31t30 -80v-248q0 -49 -30 -80t-78 -31q-49 0 -79 30.5t-30 80.5v248q0 50 30 80.5t79 30.5zM160 701q-22 0 -35.5 -14.5t-13.5 -37.5v-228l77 272q-13 8 -28 8zM160 350q22 0 35 14t13 37v229l-77 -272q13 -8 29 -8z" />
    <glyph glyph-name="one.numr" horiz-adv-x="196" 
d="M77 300v345h-65v59h15q23 0 36.5 12t13.5 33v7h59v-456h-59z" />
    <glyph glyph-name="two.numr" horiz-adv-x="283" 
d="M31 300v53q0 38 16 70t39.5 53.5t46.5 40.5t39 40t16 43v49q0 23 -13.5 37.5t-35.5 14.5t-35 -14.5t-13 -37.5v-19h-60v19q0 49 30 80t78 31q49 0 79 -30.5t30 -80.5v-49q0 -30 -16 -57t-38.5 -47l-45 -39.5t-38.5 -42.5t-16 -48v-6h154v-60h-217z" />
    <glyph glyph-name="three.numr" horiz-adv-x="294" 
d="M138 290q-49 0 -79 30.5t-30 80.5v19h60v-19q0 -23 13.5 -37t35.5 -14t35.5 14t13.5 37v49q0 23 -13.5 37t-35.5 14h-40v60h40q22 0 35.5 14t13.5 37v37q0 23 -13.5 37.5t-35.5 14.5t-35.5 -14.5t-13.5 -37.5v-19h-60v19q0 50 30 80.5t79 30.5t78.5 -30.5t29.5 -80.5v-37
q0 -52 -33 -81q33 -30 33 -81v-49q0 -50 -29.5 -80.5t-78.5 -30.5z" />
    <glyph glyph-name="four.numr" horiz-adv-x="296" 
d="M170 300v89h-161v54l165 307h55v-301h39v-60h-39v-89h-59zM71 449h99v188z" />
    <glyph glyph-name="five.numr" horiz-adv-x="308" 
d="M161 290q-49 0 -79 30.5t-30 80.5v19h60v-19q0 -23 13.5 -37t35.5 -14t35 14t13 37v87q0 23 -13.5 37t-36.5 14q-22 0 -34.5 -14t-12.5 -37v-6h-60v268h208v-59h-148v-113q20 21 52 21q47 0 76 -31t29 -80v-87q0 -50 -29.5 -80.5t-78.5 -30.5z" />
    <glyph glyph-name="six.numr" horiz-adv-x="313" 
d="M160 290q-49 0 -79 30.5t-30 80.5v248q0 50 30 80.5t79 30.5q48 0 78 -31t30 -80v-19h-60v19q0 23 -13 37.5t-35 14.5t-35.5 -14.5t-13.5 -37.5v-71q18 21 52 21q47 0 76 -31t29 -80v-87q0 -49 -30 -80t-78 -31zM160 350q22 0 35 14t13 37v87q0 23 -13.5 37t-36.5 14
q-22 0 -34.5 -14t-12.5 -37v-87q0 -23 13.5 -37t35.5 -14z" />
    <glyph glyph-name="seven.numr" horiz-adv-x="231" 
d="M42 300l114 391h-152v59h212v-54l-111 -396h-63z" />
    <glyph glyph-name="eight.numr" horiz-adv-x="312" 
d="M157 290q-49 0 -79 30.5t-30 80.5v48q0 52 32 81q-32 29 -32 81v38q0 50 30 80.5t79 30.5q48 0 77.5 -30.5t29.5 -80.5v-38q0 -52 -32 -81q32 -29 32 -81v-48q0 -50 -29.5 -80.5t-77.5 -30.5zM157 560q22 0 35 14t13 37v38q0 23 -13.5 37.5t-34.5 14.5q-22 0 -36 -14.5
t-14 -37.5v-38q0 -23 13.5 -37t36.5 -14zM157 350q21 0 34.5 14.5t13.5 36.5v48q0 23 -13.5 37t-34.5 14q-23 0 -36.5 -14t-13.5 -37v-48q0 -23 14 -37t36 -14z" />
    <glyph glyph-name="nine.numr" horiz-adv-x="313" 
d="M154 290q-49 0 -79 30.5t-30 80.5v19h60v-19q0 -23 13.5 -37t35.5 -14t35 14t13 37v71q-18 -21 -52 -21q-47 0 -76 31t-29 80v87q0 50 30 80.5t79 30.5t78.5 -30.5t29.5 -80.5v-248q0 -50 -29.5 -80.5t-78.5 -30.5zM155 511q22 0 34.5 14t12.5 37v87q0 23 -13 37.5
t-35 14.5t-35.5 -14.5t-13.5 -37.5v-87q0 -23 13.5 -37t36.5 -14z" />
    <glyph glyph-name="acute.case" horiz-adv-x="213" 
d="M41 608l66 172h85l-89 -172h-62z" />
    <glyph glyph-name="breve.case" horiz-adv-x="324" 
d="M172 662q-49 0 -81 30t-32 78v10h58v-10q0 -25 15.5 -40.5t39.5 -15.5t39 15.5t15 40.5v10h57v-10q0 -48 -31 -78t-80 -30z" />
    <glyph glyph-name="caron.case" horiz-adv-x="328" 
d="M145 634l-112 146h79l67 -92l66 92h79l-112 -146h-67z" />
    <glyph glyph-name="circumflex.case" horiz-adv-x="328" 
d="M34 634l112 146h67l112 -146h-79l-66 92l-67 -92h-79z" />
    <glyph glyph-name="dieresis.case" horiz-adv-x="352" 
d="M84 663v117h72v-117h-72zM227 663v117h71v-117h-71z" />
    <glyph glyph-name="dotaccent.case" horiz-adv-x="210" 
d="M84 633v117h72v-117h-72z" />
    <glyph glyph-name="grave.case" horiz-adv-x="213" 
d="M130 608l-90 172h86l66 -172h-62z" />
    <glyph glyph-name="hungarumlaut.case" horiz-adv-x="363" 
d="M50 608l66 172h85l-89 -172h-62zM200 608l66 172h85l-89 -172h-62z" />
    <glyph glyph-name="macron.case" horiz-adv-x="360" 
d="M74 750h221v-63h-221v63z" />
    <glyph glyph-name="ring.case" horiz-adv-x="291" 
d="M160 592q-39 0 -66.5 26.5t-27.5 67.5t27.5 67.5t66.5 26.5t66.5 -26.5t27.5 -67.5t-27.5 -67.5t-66.5 -26.5zM160 645q17 0 29.5 11.5t12.5 29.5t-12.5 29.5t-29.5 11.5q-16 0 -28.5 -11.5t-12.5 -29.5t12.5 -29.5t28.5 -11.5z" />
    <glyph glyph-name="tilde.case" horiz-adv-x="382" 
d="M266 676q-32 0 -66 24l-12.5 9.5l-12 9t-9.5 5t-11 2.5q-19 0 -19 -26v-19h-65v23q0 37 18 56.5t47 19.5q34 0 68 -25q31 -25 44 -25q19 0 19 27v21h64v-27q0 -36 -18 -55.5t-47 -19.5z" />
    <glyph glyph-name="caron.salt" horiz-adv-x="219" 
d="M49 526l40 224h80l-40 -224h-80z" />
    </font>
</defs>
</svg>
