<?xml version="1.0" standalone="no"?>
<!DOCTYPE svg PUBLIC "-//W3C//DTD SVG 1.1//EN" "http://www.w3.org/Graphics/SVG/1.1/DTD/svg11.dtd" >
<svg>
<metadata>
Created by FontForge 20090622 at Wed May 15 03:56:18 2019
 By deploy user
Copyright &#194;&#169; 2018 by Gumpita Rahayu. All rights reserved.
</metadata>
<defs>
<font id="Mohave-Bold" horiz-adv-x="506" >
  <font-face 
    font-family="Mohave Bold"
    font-weight="700"
    font-stretch="normal"
    units-per-em="1000"
    panose-1="0 0 8 0 0 0 0 0 0 0"
    ascent="780"
    descent="-220"
    x-height="550"
    cap-height="750"
    bbox="-179 -403 958 989"
    underline-thickness="80"
    underline-position="0"
    unicode-range="U+0020-U+FB02"
  />
<missing-glyph horiz-adv-x="480" 
d="M70 0v750h340v-750h-340zM155 85h170v580h-170v-580z" />
    <glyph glyph-name="fi" unicode="fi" horiz-adv-x="573" 
d="M100 0v435h-100v115h100v35q0 77 48 126t127 49h55v-125h-55q-24 0 -37 -13.5t-13 -36.5v-35h105v-115h-105v-435h-125zM389 590v130h125v-130h-125zM389 0v550h125v-550h-125z" />
    <glyph glyph-name="fl" unicode="fl" horiz-adv-x="573" 
d="M100 0v435h-100v115h100v35q0 77 48 126t127 49h55v-125h-55q-24 0 -37 -13.5t-13 -36.5v-35h105v-115h-105v-435h-125zM389 0v750h125v-750h-125z" />
    <glyph glyph-name="f_f" unicode="ff" horiz-adv-x="660" 
d="M605 635q-24 0 -37 -13.5t-13 -36.5v-35h105v-115h-105v-435h-125v435h-205v-435h-125v435h-100v115h100v35q0 77 48 126t127 49h55v-125h-55q-24 0 -37 -13.5t-13 -36.5v-35h205v35q0 77 48 126t127 49h55v-125h-55z" />
    <glyph glyph-name="f_f_i" unicode="ffi" horiz-adv-x="903" 
d="M430 585q0 77 48 126t127 49h55v-125h-55q-24 0 -37 -13.5t-13 -36.5v-35h105v-115h-105v-435h-125v435h-205v-435h-125v435h-100v115h100v35q0 77 48 126t127 49h55v-125h-55q-24 0 -37 -13.5t-13 -36.5v-35h205v35zM719 720h125v-130h-125v130zM719 0v550h125v-550
h-125z" />
    <glyph glyph-name="f_f_l" unicode="ffl" horiz-adv-x="903" 
d="M430 585q0 77 48 126t127 49h55v-125h-55q-24 0 -37 -13.5t-13 -36.5v-35h105v-115h-105v-435h-125v435h-205v-435h-125v435h-100v115h100v35q0 77 48 126t127 49h55v-125h-55q-24 0 -37 -13.5t-13 -36.5v-35h205v35zM719 750h125v-750h-125v750z" />
    <glyph glyph-name=".notdef" horiz-adv-x="480" 
d="M70 0v750h340v-750h-340zM155 85h170v580h-170v-580z" />
    <glyph glyph-name="uni0000" horiz-adv-x="600" 
 />
    <glyph glyph-name="uni0000" horiz-adv-x="600" 
 />
    <glyph glyph-name="nonmarkingreturn" horiz-adv-x="333" 
 />
    <glyph glyph-name="space" unicode=" " horiz-adv-x="240" 
 />
    <glyph glyph-name="exclam" unicode="!" horiz-adv-x="299" 
d="M82 210v540h135v-540h-135zM82 0v150h135v-150h-135z" />
    <glyph glyph-name="quotedbl" unicode="&#x22;" horiz-adv-x="474" 
d="M62 500l40 250h125l-40 -250h-125zM247 500l40 250h125l-40 -250h-125z" />
    <glyph glyph-name="numbersign" unicode="#" horiz-adv-x="612" 
d="M566 479h-87v-143h87v-134h-87v-202h-135v202l-75 1v-203h-135v203h-88v134h88v143h-88v134h88v136h135v-136l75 -1v137h135v-137h87v-134zM344 336v143l-75 1v-143z" />
    <glyph glyph-name="dollar" unicode="$" horiz-adv-x="482" 
d="M427 541h-135v40q0 33 -27 46v-197q75 -7 118.5 -56.5t43.5 -127.5v-77q0 -78 -43.5 -127.5t-118.5 -56.5v-85h-55v86q-71 10 -112 59t-41 124v40h135v-40q0 -27 18 -41v170q-71 10 -112 59t-41 124v100q0 75 41 124t112 59v86h55v-85q75 -7 118.5 -56.5t43.5 -127.5v-40
zM192 481q0 -27 18 -41v182q-18 -14 -18 -41v-100zM292 246q0 33 -27 46v-169q27 13 27 46v77z" />
    <glyph glyph-name="percent" unicode="%" horiz-adv-x="688" 
d="M161 403q-56 0 -90 34t-34 89v116q0 56 34.5 90t89.5 34t89 -34t34 -90v-116q0 -56 -34 -89.5t-89 -33.5zM126 0l332 750h105l-332 -750h-105zM161 504q22 0 22 22v116q0 23 -22 23q-23 0 -23 -23v-116q0 -22 23 -22zM528 -16q-56 0 -90 34t-34 89v116q0 55 34 89.5
t90 34.5q55 0 89 -34t34 -90v-116q0 -55 -33.5 -89t-89.5 -34zM528 85q22 0 22 22v116q0 23 -22 23q-23 0 -23 -23v-116q0 -22 23 -22z" />
    <glyph glyph-name="ampersand" unicode="&#x26;" horiz-adv-x="517" 
d="M244 -16q-84 0 -134.5 50.5t-50.5 134.5v40q0 57 24 100.5t67 65.5l-91 166v40q0 84 50.5 134.5t134.5 50.5t134.5 -50.5t50.5 -134.5v-40h-135v40q0 23 -13 36.5t-37 13.5t-37 -13.5t-13 -36.5v-40l120 -215l20 155h115l-42 -323l72 -128v-30h-123l-12 22
q-40 -38 -100 -38zM244 119q25 0 38 16l-65 118q-23 -12 -23 -44v-40q0 -23 13 -36.5t37 -13.5z" />
    <glyph glyph-name="quotesingle" unicode="'" horiz-adv-x="289" 
d="M62 500l40 250h125l-40 -250h-125z" />
    <glyph glyph-name="parenleft" unicode="(" horiz-adv-x="331" 
d="M243 -180q-84 0 -134.5 50.5t-50.5 134.5v590q0 84 50.5 134.5t134.5 50.5h70v-135h-70q-24 0 -37 -13.5t-13 -36.5v-590q0 -23 13 -36.5t37 -13.5h70v-135h-70z" />
    <glyph glyph-name="parenright" unicode=")" horiz-adv-x="332" 
d="M18 -180v135h70q24 0 37 13.5t13 36.5v590q0 23 -13 36.5t-37 13.5h-70v135h70q84 0 134.5 -50.5t50.5 -134.5v-590q0 -84 -50.5 -134.5t-134.5 -50.5h-70z" />
    <glyph glyph-name="asterisk" unicode="*" horiz-adv-x="444" 
d="M397 630l-83 -48l83 -48l-45 -78l-84 49v-95h-90v94l-84 -49l-45 78l85 49l-85 49l45 78l84 -49v90h90v-91l84 49z" />
    <glyph glyph-name="plus" unicode="+" horiz-adv-x="538" 
d="M489 343v-135h-152v-132h-135v132h-153v135h153v133h135v-133h152z" />
    <glyph glyph-name="comma" unicode="," horiz-adv-x="289" 
d="M62 -70l40 205h125l-40 -205h-125z" />
    <glyph glyph-name="hyphen" unicode="-" horiz-adv-x="418" 
d="M59 208v135h300v-135h-300z" />
    <glyph glyph-name="period" unicode="." horiz-adv-x="299" 
d="M82 0v135h135v-135h-135z" />
    <glyph glyph-name="slash" unicode="/" horiz-adv-x="381" 
d="M-11 -50l268 830h135l-268 -830h-135z" />
    <glyph glyph-name="zero" unicode="0" horiz-adv-x="488" 
d="M244 766q84 0 134.5 -50.5t50.5 -134.5v-412q0 -84 -50.5 -134.5t-134.5 -50.5t-134.5 50.5t-50.5 134.5v412q0 84 50.5 134.5t134.5 50.5zM244 631q-24 0 -37 -13.5t-13 -36.5v-252l80 294q-13 8 -30 8zM244 119q24 0 37 13.5t13 36.5v250l-80 -292q13 -8 30 -8z" />
    <glyph glyph-name="one" unicode="1" horiz-adv-x="333" 
d="M128 0v529h-117v135h33q40 0 62 20t22 55v11h135v-750h-135z" />
    <glyph glyph-name="two" unicode="2" horiz-adv-x="451" 
d="M408 481q0 -51 -23.5 -91.5t-57 -66.5l-66.5 -49.5t-56.5 -54.5t-23.5 -69v-15h227v-135h-370v125q0 56 17.5 101.5t43.5 72t56.5 51t56.5 41t43.5 40t17.5 50.5v100q0 23 -13 36.5t-37 13.5t-37 -13.5t-13 -36.5v-40h-135v40q0 84 50.5 134.5t134.5 50.5t134.5 -50.5
t50.5 -134.5v-100z" />
    <glyph glyph-name="three" unicode="3" horiz-adv-x="457" 
d="M401 581v-77q0 -70 -36 -117q36 -49 36 -118v-100q0 -84 -50.5 -134.5t-134.5 -50.5t-134.5 50.5t-50.5 134.5v40h135v-40q0 -23 13 -36.5t37 -13.5t37 13.5t13 36.5v100q0 23 -13 36.5t-37 13.5h-78v135h78q24 0 37 13.5t13 36.5v77q0 23 -13 36.5t-37 13.5t-37 -13.5
t-13 -36.5v-40h-135v40q0 84 50.5 134.5t134.5 50.5t134.5 -50.5t50.5 -134.5z" />
    <glyph glyph-name="four" unicode="4" horiz-adv-x="482" 
d="M397 263h57v-135h-57v-128h-135v128h-248v116l265 506h118v-487zM262 263v218l-107 -218h107z" />
    <glyph glyph-name="five" unicode="5" horiz-adv-x="472" 
d="M257 494q78 0 126.5 -51t48.5 -134v-140q0 -84 -50.5 -134.5t-134.5 -50.5t-134.5 50.5t-50.5 134.5v40h135v-40q0 -23 13 -36.5t37 -13.5t37 13.5t13 36.5v140q0 23 -13 36.5t-37 13.5t-37 -13.5t-13 -36.5v-7h-135v448h340v-135h-205v-136q24 15 60 15z" />
    <glyph glyph-name="six" unicode="6" horiz-adv-x="479" 
d="M429 541h-135v40q0 23 -13 36.5t-37 13.5t-37 -13.5t-13 -36.5v-102q24 15 60 15q78 0 126.5 -51t48.5 -134v-140q0 -84 -50.5 -134.5t-134.5 -50.5t-134.5 50.5t-50.5 134.5v412q0 84 50.5 134.5t134.5 50.5t134.5 -50.5t50.5 -134.5v-40zM244 359q-24 0 -37 -13.5
t-13 -36.5v-140q0 -23 13 -36.5t37 -13.5t37 13.5t13 36.5v140q0 23 -13 36.5t-37 13.5z" />
    <glyph glyph-name="seven" unicode="7" horiz-adv-x="393" 
d="M11 750h365v-126l-182 -624h-140l189 615h-232v135z" />
    <glyph glyph-name="eight" unicode="8" horiz-adv-x="480" 
d="M425 581v-80q0 -70 -36 -117q36 -49 36 -118v-97q0 -84 -50.5 -134.5t-134.5 -50.5t-134.5 50.5t-50.5 134.5v97q0 69 36 118q-36 47 -36 117v80q0 84 50.5 134.5t134.5 50.5t134.5 -50.5t50.5 -134.5zM290 501v80q0 23 -13 36.5t-37 13.5t-37 -13.5t-13 -36.5v-80
q0 -23 13 -36.5t37 -13.5t37 13.5t13 36.5zM290 169v97q0 23 -13 36.5t-37 13.5t-37 -13.5t-13 -36.5v-97q0 -23 13 -36.5t37 -13.5t37 13.5t13 36.5z" />
    <glyph glyph-name="nine" unicode="9" horiz-adv-x="480" 
d="M236 766q84 0 134.5 -50.5t50.5 -134.5v-412q0 -84 -50.5 -134.5t-134.5 -50.5t-134.5 50.5t-50.5 134.5v40h135v-40q0 -23 13 -36.5t37 -13.5t37 13.5t13 36.5v102q-24 -15 -60 -15q-78 0 -126.5 51t-48.5 134v140q0 84 50.5 134.5t134.5 50.5zM236 391q24 0 37 13.5
t13 36.5v140q0 23 -13 36.5t-37 13.5t-37 -13.5t-13 -36.5v-140q0 -23 13 -36.5t37 -13.5z" />
    <glyph glyph-name="colon" unicode=":" horiz-adv-x="299" 
d="M82 315v135h135v-135h-135zM82 0v135h135v-135h-135z" />
    <glyph glyph-name="semicolon" unicode=";" horiz-adv-x="292" 
d="M83 315v135h135v-135h-135zM53 -70l40 205h125l-40 -205h-125z" />
    <glyph glyph-name="less" unicode="&#x3c;" horiz-adv-x="433" 
d="M372 0l-342 230v95l342 226v-145l-193 -128l193 -131v-147z" />
    <glyph glyph-name="equal" unicode="=" horiz-adv-x="526" 
d="M88 308v135h350v-135h-350zM88 108v135h350v-135h-350z" />
    <glyph glyph-name="greater" unicode="&#x3e;" horiz-adv-x="435" 
d="M61 0v147l193 131l-193 128v145l342 -226v-95z" />
    <glyph glyph-name="question" unicode="?" horiz-adv-x="425" 
d="M118 179v21q0 51 14 89.5t34 61t40.5 41t34.5 40.5t14 49v100q0 23 -13 36.5t-37 13.5t-37 -13.5t-13 -36.5v-40h-135v40q0 84 50.5 134.5t134.5 50.5t134.5 -50.5t50.5 -134.5v-100q0 -44 -14 -78t-34 -56t-40.5 -42t-34.5 -46.5t-14 -58.5v-21h-135zM118 0v140h135
v-140h-135z" />
    <glyph glyph-name="at" unicode="@" horiz-adv-x="697" 
d="M353 766q128 0 205 -77.5t77 -204.5v-484h-125v19q-42 -35 -98 -35q-62 0 -101.5 48.5t-39.5 127.5v122q0 79 42 127.5t109 48.5q55 0 88 -28v54q0 71 -42.5 114t-114.5 43t-117.5 -43.5t-45.5 -113.5v-421q0 -70 48 -113.5t126 -43.5h175v-125h-175q-134 0 -216.5 77.5
t-82.5 204.5v421q0 126 79.5 204t208.5 78zM453 99q26 0 41.5 16.5t15.5 44.5v122q0 28 -15.5 44.5t-41.5 16.5t-41.5 -16.5t-15.5 -44.5v-122q0 -28 15.5 -44.5t41.5 -16.5z" />
    <glyph glyph-name="A" unicode="A" horiz-adv-x="457" 
d="M303 750l139 -750h-138l-17 117h-116l-18 -117h-138l142 750h146zM191 252h76l-37 255z" />
    <glyph glyph-name="B" unicode="B" horiz-adv-x="503" 
d="M412 374q41 -50 41 -124v-65q0 -84 -50.5 -134.5t-134.5 -50.5h-195v750h185q84 0 134.5 -50.5t50.5 -134.5v-80q0 -65 -31 -111zM208 615v-180h50q24 0 37 13.5t13 36.5v80q0 23 -13 36.5t-37 13.5h-50zM318 185v65q0 23 -13 36.5t-37 13.5h-60v-165h60q24 0 37 13.5
t13 36.5z" />
    <glyph glyph-name="C" unicode="C" horiz-adv-x="466" 
d="M432 209v-40q0 -84 -50.5 -134.5t-134.5 -50.5t-134.5 50.5t-50.5 134.5v412q0 84 50.5 134.5t134.5 50.5t134.5 -50.5t50.5 -134.5v-40h-135v40q0 23 -13 36.5t-37 13.5t-37 -13.5t-13 -36.5v-412q0 -23 13 -36.5t37 -13.5t37 13.5t13 36.5v40h135z" />
    <glyph glyph-name="D" unicode="D" horiz-adv-x="501" 
d="M73 0v750h185q84 0 134.5 -50.5t50.5 -134.5v-380q0 -84 -50.5 -134.5t-134.5 -50.5h-185zM208 135h50q24 0 37 13.5t13 36.5v380q0 23 -13 36.5t-37 13.5h-50v-480z" />
    <glyph glyph-name="E" unicode="E" horiz-adv-x="427" 
d="M383 750v-135h-175v-150h148v-135h-148v-195h175v-135h-310v750h310z" />
    <glyph glyph-name="F" unicode="F" horiz-adv-x="407" 
d="M73 0v750h310v-135h-175v-240h148v-135h-148v-240h-135z" />
    <glyph glyph-name="G" unicode="G" horiz-adv-x="484" 
d="M247 -16q-84 0 -134.5 50.5t-50.5 134.5v412q0 84 50.5 134.5t134.5 50.5t134.5 -50.5t50.5 -134.5v-40h-135v40q0 23 -13 36.5t-37 13.5t-37 -13.5t-13 -36.5v-412q0 -23 13 -36.5t37 -13.5t37 13.5t13 36.5v71h-63v135h198v-206q0 -84 -50.5 -134.5t-134.5 -50.5z" />
    <glyph glyph-name="H" unicode="H" horiz-adv-x="496" 
d="M73 0v750h135v-375h80v375h135v-750h-135v240h-80v-240h-135z" />
    <glyph glyph-name="I" unicode="I" horiz-adv-x="281" 
d="M208 0h-135v750h135v-750z" />
    <glyph glyph-name="J" unicode="J" horiz-adv-x="329" 
d="M9 -7v135h68q24 0 37 13.5t13 36.5v572h135v-572q0 -84 -50.5 -134.5t-134.5 -50.5h-68z" />
    <glyph glyph-name="K" unicode="K" horiz-adv-x="501" 
d="M493 750l-177 -268l167 -482h-145l-115 341l-15 -23v-318h-135v750h135v-211l140 211h145z" />
    <glyph glyph-name="L" unicode="L" horiz-adv-x="378" 
d="M208 750v-615h155v-135h-290v750h135z" />
    <glyph glyph-name="M" unicode="M" horiz-adv-x="662" 
d="M469 750h120v-750h-125v321l-90 -321h-86l-90 321v-321h-125v750h120l138 -521z" />
    <glyph glyph-name="N" unicode="N" 
d="M308 750h125v-750h-100l-135 384v-384h-125v750h100l135 -384v384z" />
    <glyph glyph-name="O" unicode="O" horiz-adv-x="494" 
d="M247 -16q-84 0 -134.5 50.5t-50.5 134.5v412q0 84 50.5 134.5t134.5 50.5t134.5 -50.5t50.5 -134.5v-412q0 -84 -50.5 -134.5t-134.5 -50.5zM247 119q24 0 37 13.5t13 36.5v412q0 23 -13 36.5t-37 13.5t-37 -13.5t-13 -36.5v-412q0 -23 13 -36.5t37 -13.5z" />
    <glyph glyph-name="P" unicode="P" horiz-adv-x="470" 
d="M73 0v750h185q84 0 134.5 -50.5t50.5 -134.5v-100q0 -84 -50.5 -134.5t-134.5 -50.5h-50v-280h-135zM208 415h50q24 0 37 13.5t13 36.5v100q0 23 -13 36.5t-37 13.5h-50v-200z" />
    <glyph glyph-name="Q" unicode="Q" horiz-adv-x="494" 
d="M432 581v-412q0 -75 -41 -124l32 -137h-137l-19 77q-6 -1 -20 -1q-84 0 -134.5 50.5t-50.5 134.5v412q0 84 50.5 134.5t134.5 50.5t134.5 -50.5t50.5 -134.5zM197 169q0 -41 38 -49l-24 99h86v362q0 23 -13 36.5t-37 13.5t-37 -13.5t-13 -36.5v-412z" />
    <glyph glyph-name="R" unicode="R" horiz-adv-x="504" 
d="M443 565v-120q0 -84 -51 -135q51 -36 51 -100v-210h-135v210q0 23 -13 36.5t-37 13.5h-50v-260h-135v750h185q84 0 134.5 -50.5t50.5 -134.5zM308 445v120q0 23 -13 36.5t-37 13.5h-50v-220h50q24 0 37 13.5t13 36.5z" />
    <glyph glyph-name="S" unicode="S" horiz-adv-x="465" 
d="M234 -16q-84 0 -134.5 50.5t-50.5 134.5v40h135v-40q0 -23 13 -36.5t37 -13.5t37 13.5t13 36.5v77q0 23 -13 36.5t-37 13.5q-84 0 -134.5 50.5t-50.5 134.5v100q0 84 50.5 134.5t134.5 50.5t134.5 -50.5t50.5 -134.5v-40h-135v40q0 23 -13 36.5t-37 13.5t-37 -13.5
t-13 -36.5v-100q0 -23 13 -36.5t37 -13.5q84 0 134.5 -50.5t50.5 -134.5v-77q0 -84 -50.5 -134.5t-134.5 -50.5z" />
    <glyph glyph-name="T" unicode="T" horiz-adv-x="375" 
d="M120 0v615h-110v135h355v-135h-110v-615h-135z" />
    <glyph glyph-name="U" unicode="U" 
d="M438 750v-581q0 -84 -50.5 -134.5t-134.5 -50.5t-134.5 50.5t-50.5 134.5v581h135v-581q0 -23 13 -36.5t37 -13.5t37 13.5t13 36.5v581h135z" />
    <glyph glyph-name="V" unicode="V" horiz-adv-x="457" 
d="M304 750h138l-139 -750h-146l-142 750h138l77 -499z" />
    <glyph glyph-name="W" unicode="W" horiz-adv-x="681" 
d="M515 750h138l-92 -750h-146l-74 393l-75 -393h-146l-92 750h138l47 -458l73 458h109l73 -458z" />
    <glyph glyph-name="X" unicode="X" horiz-adv-x="451" 
d="M436 750l-141 -375l141 -375h-138l-72 192l-73 -192h-138l142 375l-142 375h138l73 -192l72 192h138z" />
    <glyph glyph-name="Y" unicode="Y" horiz-adv-x="453" 
d="M312 750h138l-155 -410v-340h-135v340l-157 410h138l87 -259z" />
    <glyph glyph-name="Z" unicode="Z" horiz-adv-x="437" 
d="M406 750v-98l-230 -517h230v-135h-375v98l230 517h-230v135h375z" />
    <glyph glyph-name="bracketleft" unicode="[" horiz-adv-x="343" 
d="M70 -180v960h255v-135h-120v-690h120v-135h-255z" />
    <glyph glyph-name="backslash" unicode="\" horiz-adv-x="381" 
d="M392 -50h-135l-268 830h135z" />
    <glyph glyph-name="bracketright" unicode="]" horiz-adv-x="343" 
d="M18 -180v135h120v690h-120v135h255v-960h-255z" />
    <glyph glyph-name="asciicircum" unicode="^" horiz-adv-x="465" 
d="M27 478l160 272h95l156 -272h-135l-68 133l-71 -133h-137z" />
    <glyph glyph-name="underscore" unicode="_" horiz-adv-x="544" 
d="M82 -155v135h380v-135h-380z" />
    <glyph glyph-name="grave" unicode="`" horiz-adv-x="235" 
d="M110 608l-98 172h135l58 -172h-95z" />
    <glyph glyph-name="a" unicode="a" horiz-adv-x="440" 
d="M214 563q80 0 127.5 -50.5t47.5 -134.5v-378h-125v25q-35 -38 -97 -38q-66 0 -102 41t-36 108q0 94 81 138q21 12 66.5 28.5t66.5 32.5t21 43v10q0 23 -13 36.5t-37 13.5t-37 -13.5t-13 -36.5v-30h-125v20q0 84 47.5 134.5t127.5 50.5zM208 102q24 0 40 13.5t16 43.5v77
q-11 -9 -39 -20.5t-32 -13.5q-39 -20 -39 -50q0 -21 14 -35.5t40 -14.5z" />
    <glyph glyph-name="b" unicode="b" horiz-adv-x="458" 
d="M277 563q132 0 132 -175v-226q0 -175 -132 -175q-59 0 -93 36v-23h-125v750h125v-223q34 36 93 36zM284 162v226q0 23 -13 36.5t-37 13.5t-37 -13.5t-13 -36.5v-226q0 -23 13 -36.5t37 -13.5t37 13.5t13 36.5z" />
    <glyph glyph-name="c" unicode="c" horiz-adv-x="420" 
d="M393 182v-10q0 -84 -47.5 -134.5t-127.5 -50.5t-127.5 50.5t-47.5 134.5v206q0 84 47.5 134.5t127.5 50.5t127.5 -50.5t47.5 -134.5v-10h-125v20q0 23 -13 36.5t-37 13.5t-37 -13.5t-13 -36.5v-226q0 -23 13 -36.5t37 -13.5t37 13.5t13 36.5v20h125z" />
    <glyph glyph-name="d" unicode="d" horiz-adv-x="458" 
d="M274 750h125v-750h-125v23q-34 -36 -93 -36q-132 0 -132 175v226q0 175 132 175q59 0 93 -36v223zM224 112q24 0 37 13.5t13 36.5v226q0 23 -13 36.5t-37 13.5t-37 -13.5t-13 -36.5v-226q0 -23 13 -36.5t37 -13.5z" />
    <glyph glyph-name="e" unicode="e" horiz-adv-x="434" 
d="M393 243h-225v-81q0 -23 13 -36.5t37 -13.5t37 13.5t13 36.5v20h125v-10q0 -84 -47.5 -134.5t-127.5 -50.5t-127.5 50.5t-47.5 134.5v206q0 84 47.5 134.5t127.5 50.5t127.5 -50.5t47.5 -134.5v-135zM218 438q-24 0 -37 -13.5t-13 -36.5v-30h100v30q0 23 -13 36.5
t-37 13.5z" />
    <glyph glyph-name="f" unicode="f" horiz-adv-x="330" 
d="M100 0v435h-100v115h100v35q0 77 48 126t127 49h55v-125h-55q-24 0 -37 -13.5t-13 -36.5v-35h105v-115h-105v-435h-125z" />
    <glyph glyph-name="g" unicode="g" horiz-adv-x="452" 
d="M268 550h125v-550q0 -83 -48 -133t-127 -50q-80 0 -127.5 50.5t-47.5 134.5v22h125v-32q0 -23 13 -36.5t37 -13.5t37 13.5t13 36.5v101q-34 -36 -93 -36q-132 0 -132 175v156q0 175 132 175q59 0 93 -36v23zM218 182q24 0 37 13.5t13 36.5v156q0 23 -13 36.5t-37 13.5
t-37 -13.5t-13 -36.5v-156q0 -23 13 -36.5t37 -13.5z" />
    <glyph glyph-name="h" unicode="h" horiz-adv-x="464" 
d="M277 563q56 0 94 -34t38 -111v-418h-125v388q0 23 -13 36.5t-37 13.5t-37 -13.5t-13 -36.5v-388h-125v750h125v-223q34 36 93 36z" />
    <glyph glyph-name="i" unicode="i" horiz-adv-x="243" 
d="M59 590v130h125v-130h-125zM59 0v550h125v-550h-125z" />
    <glyph glyph-name="j" unicode="j" horiz-adv-x="243" 
d="M59 590v130h125v-130h-125zM-26 -183v125h35q24 0 37 13.5t13 36.5v558h125v-548q0 -84 -47.5 -134.5t-127.5 -50.5h-35z" />
    <glyph glyph-name="k" unicode="k" horiz-adv-x="446" 
d="M302 384l148 -384h-130l-100 270l-36 -50v-220h-125v750h125v-349l107 149h130z" />
    <glyph glyph-name="l" unicode="l" horiz-adv-x="243" 
d="M59 0v750h125v-750h-125z" />
    <glyph glyph-name="m" unicode="m" horiz-adv-x="689" 
d="M502 563q56 0 94 -34t38 -111v-418h-125v388q0 23 -13 36.5t-37 13.5t-37 -13.5t-13 -36.5v-388h-125v388q0 23 -13 36.5t-37 13.5t-37 -13.5t-13 -36.5v-388h-125v550h125v-23q34 36 93 36q80 0 114 -60q35 60 111 60z" />
    <glyph glyph-name="n" unicode="n" horiz-adv-x="462" 
d="M277 563q62 0 97 -46t35 -129v-388h-125v388q0 23 -13 36.5t-37 13.5t-37 -13.5t-13 -36.5v-388h-125v550h125v-26q34 39 93 39z" />
    <glyph glyph-name="o" unicode="o" horiz-adv-x="436" 
d="M218 -13q-80 0 -127.5 50.5t-47.5 134.5v206q0 84 47.5 134.5t127.5 50.5t127.5 -50.5t47.5 -134.5v-206q0 -84 -47.5 -134.5t-127.5 -50.5zM218 112q24 0 37 13.5t13 36.5v226q0 23 -13 36.5t-37 13.5t-37 -13.5t-13 -36.5v-226q0 -23 13 -36.5t37 -13.5z" />
    <glyph glyph-name="p" unicode="p" horiz-adv-x="458" 
d="M277 563q132 0 132 -175v-226q0 -175 -132 -175q-59 0 -93 36v-203h-125v730h125v-23q34 36 93 36zM284 162v226q0 23 -13 36.5t-37 13.5t-37 -13.5t-13 -36.5v-226q0 -23 13 -36.5t37 -13.5t37 13.5t13 36.5z" />
    <glyph glyph-name="q" unicode="q" horiz-adv-x="458" 
d="M274 550h125v-720h-125v193q-34 -36 -93 -36q-132 0 -132 175v226q0 175 132 175q59 0 93 -36v23zM224 112q24 0 37 13.5t13 36.5v226q0 23 -13 36.5t-37 13.5t-37 -13.5t-13 -36.5v-226q0 -23 13 -36.5t37 -13.5z" />
    <glyph glyph-name="r" unicode="r" horiz-adv-x="302" 
d="M277 557h25v-125h-68q-50 0 -50 -44v-388h-125v550h125v-29q34 36 93 36z" />
    <glyph glyph-name="s" unicode="s" horiz-adv-x="419" 
d="M210 -13q-80 0 -127.5 50.5t-47.5 134.5v10h125v-20q0 -23 13 -36.5t37 -13.5q23 0 36.5 14.5t13.5 36.5q0 23 -13.5 39t-36.5 16q-80 0 -127.5 47t-47.5 123q0 79 47.5 127t127.5 48t127.5 -50.5t47.5 -134.5v-10h-125v20q0 23 -13 36.5t-37 13.5q-23 0 -36.5 -14
t-13.5 -36q0 -23 13.5 -39t36.5 -16q80 0 127.5 -47t47.5 -123q0 -79 -47.5 -127.5t-127.5 -48.5z" />
    <glyph glyph-name="t" unicode="t" horiz-adv-x="342" 
d="M264 -7q-81 0 -128 46t-47 129v267h-90v115h90v130h125v-130h105v-115h-105v-267q0 -23 13 -36.5t37 -13.5h55v-125h-55z" />
    <glyph glyph-name="u" unicode="u" horiz-adv-x="463" 
d="M279 550h125v-550h-125v23q-34 -36 -93 -36q-132 0 -132 175v388h125v-388q0 -23 13 -36.5t37 -13.5t37 13.5t13 36.5v388z" />
    <glyph glyph-name="v" unicode="v" horiz-adv-x="428" 
d="M291 550h136l-139 -550h-146l-142 550h136l79 -345z" />
    <glyph glyph-name="w" unicode="w" horiz-adv-x="601" 
d="M460 550h130l-97 -550h-128l-64 307l-65 -307h-128l-97 550h130l42 -336l63 336h109l63 -336z" />
    <glyph glyph-name="x" unicode="x" horiz-adv-x="412" 
d="M412 550l-144 -275l144 -275h-128l-78 149l-78 -149h-128l145 275l-145 275h128l78 -149l78 149h128z" />
    <glyph glyph-name="y" unicode="y" horiz-adv-x="425" 
d="M290 550h136l-198 -730h-126l48 180l-151 550h136l79 -336z" />
    <glyph glyph-name="z" unicode="z" horiz-adv-x="402" 
d="M376 550v-98l-195 -327h195v-125h-350v98l204 327h-204v125h350z" />
    <glyph glyph-name="braceleft" unicode="{" horiz-adv-x="360" 
d="M272 -180q-84 0 -134.5 50.5t-50.5 134.5v198q0 30 -30 30h-50v135h50q30 0 30 30v197q0 84 50.5 134.5t134.5 50.5h70v-135h-70q-24 0 -37 -13.5t-13 -36.5v-197q0 -57 -47 -97q47 -42 47 -98v-198q0 -23 13 -36.5t37 -13.5h70v-135h-70z" />
    <glyph glyph-name="bar" unicode="|" horiz-adv-x="311" 
d="M223 -150h-135v930h135v-930z" />
    <glyph glyph-name="braceright" unicode="}" horiz-adv-x="360" 
d="M18 -180v135h70q24 0 37 13.5t13 36.5v198q0 56 47 98q-47 40 -47 97v197q0 23 -13 36.5t-37 13.5h-70v135h70q84 0 134.5 -50.5t50.5 -134.5v-197q0 -30 30 -30h50v-135h-50q-30 0 -30 -30v-198q0 -84 -50.5 -134.5t-134.5 -50.5h-70z" />
    <glyph glyph-name="asciitilde" unicode="~" horiz-adv-x="609" 
d="M67 179v31q0 70 37 108t110 38q41 0 71 -13t50.5 -25.5t38.5 -12.5q22 0 29.5 9.5t7.5 25.5v24h130v-33q0 -68 -34.5 -107t-95.5 -39q-48 0 -98 30.5t-73 30.5q-43 0 -43 -44v-23h-130z" />
    <glyph glyph-name="uni00A0" unicode="&#xa0;" horiz-adv-x="240" 
 />
    <glyph glyph-name="exclamdown" unicode="&#xa1;" horiz-adv-x="299" 
d="M82 400v150h135v-150h-135zM82 -200v540h135v-540h-135z" />
    <glyph glyph-name="cent" unicode="&#xa2;" horiz-adv-x="458" 
d="M410 368h-125v20q0 30 -22 43v-312q22 13 22 43v20h125v-10q0 -76 -39.5 -125t-107.5 -58v-89h-55v89q-68 8 -108 57.5t-40 125.5v206q0 76 40 125.5t108 57.5v89h55v-89q68 -9 107.5 -58t39.5 -125v-10zM185 162q0 -32 23 -44v314q-23 -12 -23 -44v-226z" />
    <glyph glyph-name="sterling" unicode="&#xa3;" horiz-adv-x="526" 
d="M488 541h-135v40q0 23 -13 36.5t-37 13.5t-37 -13.5t-13 -36.5v-147h100v-115h-100v-204h185v-115h-385v115h65v204h-65v115h65v147q0 84 50.5 134.5t134.5 50.5t134.5 -50.5t50.5 -134.5v-40z" />
    <glyph glyph-name="currency" unicode="&#xa4;" horiz-adv-x="551" 
d="M112 58l-63 63l76 76q-21 40 -21 88q0 47 21 86l-76 76l63 63l76 -76q39 22 88 22q50 0 87 -21l75 75l63 -63l-75 -75q21 -40 21 -87q0 -49 -22 -88l76 -76l-63 -63l-76 76q-38 -21 -86 -21t-87 22zM276 223q25 0 43 17.5t18 44.5t-18 44t-43 17t-43.5 -17t-18.5 -44
t18.5 -44.5t43.5 -17.5z" />
    <glyph glyph-name="yen" unicode="&#xa5;" horiz-adv-x="499" 
d="M473 750l-152 -403h79v-115h-82v-42h82v-115h-82v-75h-135v75h-83v115h83v42h-83v115h80l-154 403h138l87 -239l84 239h138z" />
    <glyph glyph-name="brokenbar" unicode="&#xa6;" horiz-adv-x="311" 
d="M223 414h-135v366h135v-366zM223 -150h-135v366h135v-366z" />
    <glyph glyph-name="section" unicode="&#xa7;" horiz-adv-x="480" 
d="M240 -30q-79 0 -127 51t-48 134v10h125v-20q0 -23 14 -36.5t36 -13.5q23 0 36.5 14t13.5 37q0 25 -14 40t-36 15q-79 0 -127 46.5t-48 123.5q0 68 35 111q-35 43 -35 109q0 79 48 127t127 48t127 -51t48 -134v-10h-125v20q0 23 -14 36.5t-36 13.5t-36 -13.5t-14 -36.5
q0 -25 14 -40t36 -15q79 0 127 -47t48 -123q0 -68 -35 -111q35 -43 35 -109q0 -79 -48 -127.5t-127 -48.5zM240 316q22 0 36 14t14 36q0 25 -14 40t-36 15t-36 -13.5t-14 -36.5q0 -25 14 -40t36 -15z" />
    <glyph glyph-name="dieresis" unicode="&#xa8;" horiz-adv-x="398" 
d="M59 648v132h110v-132h-110zM229 648v132h110v-132h-110z" />
    <glyph glyph-name="copyright" unicode="&#xa9;" horiz-adv-x="817" 
d="M408 -16q-164 0 -264 108t-100 284q0 175 100 282.5t264 107.5t264.5 -105.5t100.5 -277.5q0 -179 -100.5 -289t-264.5 -110zM408 69q126 0 203 86.5t77 227.5q0 134 -77 216t-203 82q-125 0 -202 -84t-77 -221q0 -138 77 -222.5t202 -84.5zM409 140q-51 0 -81.5 30.5
t-30.5 80.5v248q0 50 30.5 80.5t81.5 30.5t81 -30.5t30 -80.5v-25h-85v25q0 26 -26 26q-27 0 -27 -26v-248q0 -26 27 -26q26 0 26 26v25h85v-25q0 -50 -30 -80.5t-81 -30.5z" />
    <glyph glyph-name="ordfeminine" unicode="&#xaa;" horiz-adv-x="309" 
d="M151 760q48 0 76.5 -30.5t28.5 -80.5v-227h-78v14q-21 -22 -56 -22q-39 0 -60.5 25t-21.5 65q0 56 48 83q13 7 40 17.5t38.5 20t11.5 24.5v6q0 27 -27 27t-27 -27v-19h-78v13q0 50 28.5 80.5t76.5 30.5zM148 486q30 0 30 31v45q-4 -4 -10.5 -7.5t-14.5 -7t-13 -5.5
q-21 -11 -21 -28q0 -11 7.5 -19.5t21.5 -8.5z" />
    <glyph glyph-name="guillemotleft" unicode="&#xab;" horiz-adv-x="637" 
d="M275 0l-262 214v80l262 214v-152l-128 -102l128 -102v-152zM587 0l-262 214v80l262 214v-152l-128 -102l128 -102v-152z" />
    <glyph glyph-name="logicalnot" unicode="&#xac;" horiz-adv-x="555" 
d="M332 108v100h-265v135h400v-235h-135z" />
    <glyph glyph-name="uni00AD" unicode="&#xad;" horiz-adv-x="418" 
d="M72 208v135h300v-135h-300z" />
    <glyph glyph-name="registered" unicode="&#xae;" horiz-adv-x="817" 
d="M408 -16q-164 0 -264 108t-100 284q0 175 100 282.5t264 107.5t264.5 -105.5t100.5 -277.5q0 -179 -100.5 -289t-264.5 -110zM408 69q126 0 203 86.5t77 227.5q0 134 -77 216t-203 82q-125 0 -202 -84t-77 -221q0 -138 77 -222.5t202 -84.5zM296 150v450h111q51 0 82 -31
t31 -81v-73q0 -49 -30 -81q30 -21 30 -59v-125h-85v125q0 28 -28 28h-26v-153h-85zM381 388h26q28 0 28 27v73q0 27 -28 27h-26v-127z" />
    <glyph glyph-name="macron" unicode="&#xaf;" horiz-adv-x="359" 
d="M59 750h241v-90h-241v90z" />
    <glyph glyph-name="degree" unicode="&#xb0;" horiz-adv-x="412" 
d="M205 476q-59 0 -102 40.5t-43 103.5q0 64 43 105t102 41q60 0 103 -41t43 -105q0 -63 -43 -103.5t-103 -40.5zM205 566q24 0 39.5 15t15.5 39q0 25 -15.5 40t-39.5 15t-39 -15t-15 -40q0 -24 15 -39t39 -15z" />
    <glyph glyph-name="plusminus" unicode="&#xb1;" horiz-adv-x="526" 
d="M331 443h132v-135h-132v-112h-135v112h-133v135h133v113h135v-113zM63 0v135h400v-135h-400z" />
    <glyph glyph-name="uni00B2" unicode="&#xb2;" horiz-adv-x="301" 
d="M37 330v79q0 40 14 70t34.5 46.5t41 30t34.5 28.5t14 33v62q0 26 -27 26q-12 0 -19 -7.5t-7 -18.5v-25h-85v25q0 50 30.5 80.5t80.5 30.5q51 0 81.5 -30.5t30.5 -80.5v-62q0 -38 -21 -66t-45.5 -42t-45.5 -36t-21 -49v-9h133v-85h-223z" />
    <glyph glyph-name="uni00B3" unicode="&#xb3;" horiz-adv-x="304" 
d="M144 320q-51 0 -81.5 30.5t-30.5 80.5v25h85v-25q0 -26 27 -26q12 0 19 7.5t7 18.5v63q0 11 -7 18.5t-19 7.5h-49v85h49q26 0 26 26v48q0 11 -7 18.5t-19 7.5q-27 0 -27 -26v-25h-85v25q0 50 30.5 80.5t81.5 30.5q50 0 80.5 -30.5t30.5 -80.5v-48q0 -41 -20 -69
q20 -28 20 -68v-63q0 -50 -30.5 -80.5t-80.5 -30.5z" />
    <glyph glyph-name="acute" unicode="&#xb4;" horiz-adv-x="235" 
d="M30 608l58 172h135l-98 -172h-95z" />
    <glyph glyph-name="uni00B5" unicode="&#xb5;" horiz-adv-x="513" 
d="M313 550h125v-550h-125v23q-34 -36 -93 -36h-7v-137h-125v700h125v-388q0 -23 13 -36.5t37 -13.5t37 13.5t13 36.5v388z" />
    <glyph glyph-name="paragraph" unicode="&#xb6;" horiz-adv-x="487" 
d="M399 -150h-135v500h-50q-84 0 -134.5 50.5t-50.5 134.5v30q0 84 50.5 134.5t134.5 50.5h185v-900z" />
    <glyph glyph-name="periodcentered" unicode="&#xb7;" horiz-adv-x="279" 
d="M82 215v120h115v-120h-115z" />
    <glyph glyph-name="cedilla" unicode="&#xb8;" horiz-adv-x="288" 
d="M144 -54q52 6 86 -25t34 -77q0 -52 -33 -84t-87 -32h-90v90h90q30 0 30 26q0 12 -8.5 19.5t-21.5 7.5h-50l-40 20v131h90v-76z" />
    <glyph glyph-name="uni00B9" unicode="&#xb9;" horiz-adv-x="228" 
d="M83 330v313h-71v85h21q23 0 36.5 12t13.5 33v7h85v-450h-85z" />
    <glyph glyph-name="ordmasculine" unicode="&#xba;" horiz-adv-x="305" 
d="M152 414q-48 0 -76.5 31t-28.5 81v123q0 50 28.5 80.5t76.5 30.5t77 -30.5t29 -80.5v-123q0 -50 -29 -81t-77 -31zM152 493q27 0 27 26v136q0 27 -27 27q-26 0 -26 -27v-136q0 -26 26 -26z" />
    <glyph glyph-name="guillemotright" unicode="&#xbb;" horiz-adv-x="637" 
d="M49 0v152l128 102l-128 102v152l262 -214v-80zM361 0v152l128 102l-128 102v152l262 -214v-80z" />
    <glyph glyph-name="onequarter" unicode="&#xbc;" horiz-adv-x="798" 
d="M83 300v313h-71v85h21q23 0 36.5 12t13.5 33v7h85v-450h-85zM138 0l332 750h105l-332 -750h-105zM645 0v74h-147v73l158 303h74v-290h33v-86h-33v-74h-85zM587 160h58v120z" />
    <glyph glyph-name="onehalf" unicode="&#xbd;" horiz-adv-x="786" 
d="M83 300v313h-71v85h21q23 0 36.5 12t13.5 33v7h85v-450h-85zM138 0l332 750h105l-332 -750h-105zM522 0v79q0 40 14 70t34.5 46.5t41 30t34.5 28.5t14 33v62q0 26 -27 26q-12 0 -19 -7.5t-7 -18.5v-25h-85v25q0 50 30.5 80.5t80.5 30.5q51 0 81.5 -30.5t30.5 -80.5v-62
q0 -38 -21 -66t-45.5 -42t-45.5 -36t-21 -49v-9h133v-85h-223z" />
    <glyph glyph-name="threequarters" unicode="&#xbe;" horiz-adv-x="874" 
d="M144 290q-51 0 -81.5 30.5t-30.5 80.5v25h85v-25q0 -26 27 -26q12 0 19 7.5t7 18.5v63q0 11 -7 18.5t-19 7.5h-49v85h49q26 0 26 26v48q0 11 -7 18.5t-19 7.5q-27 0 -27 -26v-25h-85v25q0 50 30.5 80.5t81.5 30.5q50 0 80.5 -30.5t30.5 -80.5v-48q0 -41 -20 -69
q20 -28 20 -68v-63q0 -50 -30.5 -80.5t-80.5 -30.5zM214 0l332 750h105l-332 -750h-105zM721 0v74h-147v73l158 303h74v-290h33v-86h-33v-74h-85zM663 160h58v120z" />
    <glyph glyph-name="questiondown" unicode="&#xbf;" horiz-adv-x="426" 
d="M307 550v-140h-135v140h135zM307 371v-21q0 -51 -14 -89.5t-34.5 -61t-40.5 -41t-34 -40.5t-14 -49v-100q0 -23 13 -36.5t37 -13.5t37 13.5t13 36.5v40h135v-40q0 -84 -50.5 -134.5t-134.5 -50.5t-134.5 50.5t-50.5 134.5v100q0 44 14 78t34.5 56l40.5 42t34 46.5
t14 58.5v21h135z" />
    <glyph glyph-name="Agrave" unicode="&#xc0;" horiz-adv-x="457" 
d="M279 808h-95l-98 172h135zM303 750l139 -750h-138l-17 117h-116l-18 -117h-138l142 750h146zM191 252h76l-37 255z" />
    <glyph glyph-name="Aacute" unicode="&#xc1;" horiz-adv-x="457" 
d="M374 980l-98 -172h-95l58 172h135zM303 750l139 -750h-138l-17 117h-116l-18 -117h-138l142 750h146zM191 252h76l-37 255z" />
    <glyph glyph-name="Acircumflex" unicode="&#xc2;" horiz-adv-x="457" 
d="M229 906l-56 -78h-115l118 152h105l118 -152h-115zM303 750l139 -750h-138l-17 117h-116l-18 -117h-138l142 750h146zM191 252h76l-37 255z" />
    <glyph glyph-name="Atilde" unicode="&#xc3;" horiz-adv-x="457" 
d="M177 857v-29h-101v39q0 38 19.5 60.5t51.5 22.5q45 0 81 -26q29 -21 42 -21q11 0 11 13v29h101v-39q0 -38 -19.5 -60.5t-51.5 -22.5q-43 0 -85 29q-25 18 -38 18q-11 0 -11 -13zM303 750l139 -750h-138l-17 117h-116l-18 -117h-138l142 750h146zM191 252h76l-37 255z" />
    <glyph glyph-name="Adieresis" unicode="&#xc4;" horiz-adv-x="457" 
d="M200 980v-132h-110v132h110zM370 980v-132h-110v132h110zM303 750l139 -750h-138l-17 117h-116l-18 -117h-138l142 750h146zM191 252h76l-37 255z" />
    <glyph glyph-name="Aring" unicode="&#xc5;" horiz-adv-x="457" 
d="M229 768q-45 0 -77.5 31t-32.5 79q0 49 32 80t78 31t78.5 -31t32.5 -80q0 -48 -32.5 -79t-78.5 -31zM229 914q-15 0 -25 -10t-10 -26q0 -15 10 -25t25 -10t25.5 10t10.5 25q0 16 -10.5 26t-25.5 10zM303 750l139 -750h-138l-17 117h-116l-18 -117h-138l142 750h146z
M191 252h76l-37 255z" />
    <glyph glyph-name="AE" unicode="&#xc6;" horiz-adv-x="659" 
d="M15 0l142 750h458v-135h-176v-150h149v-135h-149v-195h176v-135h-311v117h-131l-20 -117h-138zM196 252h108v363h-45z" />
    <glyph glyph-name="Ccedilla" unicode="&#xc7;" horiz-adv-x="466" 
d="M432 541h-135v40q0 23 -13 36.5t-37 13.5t-37 -13.5t-13 -36.5v-412q0 -23 13 -36.5t37 -13.5t37 13.5t13 36.5v40h135v-40q0 -70 -35.5 -117.5t-97.5 -61.5v-44q52 6 86 -25t34 -77q0 -52 -33 -84t-87 -32h-90v90h90q30 0 30 26q0 12 -8.5 19.5t-21.5 7.5h-50l-40 20v96
q-68 11 -107.5 60t-39.5 122v412q0 84 50.5 134.5t134.5 50.5t134.5 -50.5t50.5 -134.5v-40z" />
    <glyph glyph-name="Egrave" unicode="&#xc8;" horiz-adv-x="427" 
d="M168 808l-98 172h135l58 -172h-95zM383 750v-135h-175v-150h148v-135h-148v-195h175v-135h-310v750h310z" />
    <glyph glyph-name="Eacute" unicode="&#xc9;" horiz-adv-x="427" 
d="M165 808l58 172h135l-98 -172h-95zM383 750v-135h-175v-150h148v-135h-148v-195h175v-135h-310v750h310z" />
    <glyph glyph-name="Ecircumflex" unicode="&#xca;" horiz-adv-x="427" 
d="M42 828l118 152h105l118 -152h-115l-55 78l-56 -78h-115zM383 750v-135h-175v-150h148v-135h-148v-195h175v-135h-310v750h310z" />
    <glyph glyph-name="Edieresis" unicode="&#xcb;" horiz-adv-x="427" 
d="M74 848v132h110v-132h-110zM244 848v132h110v-132h-110zM383 750v-135h-175v-150h148v-135h-148v-195h175v-135h-310v750h310z" />
    <glyph glyph-name="Igrave" unicode="&#xcc;" horiz-adv-x="281" 
d="M96 808l-98 172h135l58 -172h-95zM208 0h-135v750h135v-750z" />
    <glyph glyph-name="Iacute" unicode="&#xcd;" horiz-adv-x="281" 
d="M93 808l58 172h135l-98 -172h-95zM208 0h-135v750h135v-750z" />
    <glyph glyph-name="Icircumflex" unicode="&#xce;" horiz-adv-x="281" 
d="M-30 828l118 152h105l118 -152h-115l-55 78l-56 -78h-115zM208 0h-135v750h135v-750z" />
    <glyph glyph-name="Idieresis" unicode="&#xcf;" horiz-adv-x="281" 
d="M2 848v132h110v-132h-110zM172 848v132h110v-132h-110zM208 0h-135v750h135v-750z" />
    <glyph glyph-name="Eth" unicode="&#xd0;" horiz-adv-x="501" 
d="M258 750q84 0 134.5 -50.5t50.5 -134.5v-380q0 -84 -50.5 -134.5t-134.5 -50.5h-185v318h-55v115h55v317h185zM308 185v380q0 23 -13 36.5t-37 13.5h-50v-182h60v-115h-60v-183h50q24 0 37 13.5t13 36.5z" />
    <glyph glyph-name="Ntilde" unicode="&#xd1;" 
d="M201 857v-29h-101v39q0 38 19.5 60.5t51.5 22.5q45 0 81 -26q29 -21 42 -21q11 0 11 13v29h101v-39q0 -38 -19.5 -60.5t-51.5 -22.5q-43 0 -85 29q-25 18 -38 18q-11 0 -11 -13zM308 750h125v-750h-100l-135 384v-384h-125v750h100l135 -384v384z" />
    <glyph glyph-name="Ograve" unicode="&#xd2;" horiz-adv-x="494" 
d="M202 808l-98 172h135l58 -172h-95zM247 -16q-84 0 -134.5 50.5t-50.5 134.5v412q0 84 50.5 134.5t134.5 50.5t134.5 -50.5t50.5 -134.5v-412q0 -84 -50.5 -134.5t-134.5 -50.5zM247 119q24 0 37 13.5t13 36.5v412q0 23 -13 36.5t-37 13.5t-37 -13.5t-13 -36.5v-412
q0 -23 13 -36.5t37 -13.5z" />
    <glyph glyph-name="Oacute" unicode="&#xd3;" horiz-adv-x="494" 
d="M199 808l58 172h135l-98 -172h-95zM247 -16q-84 0 -134.5 50.5t-50.5 134.5v412q0 84 50.5 134.5t134.5 50.5t134.5 -50.5t50.5 -134.5v-412q0 -84 -50.5 -134.5t-134.5 -50.5zM247 119q24 0 37 13.5t13 36.5v412q0 23 -13 36.5t-37 13.5t-37 -13.5t-13 -36.5v-412
q0 -23 13 -36.5t37 -13.5z" />
    <glyph glyph-name="Ocircumflex" unicode="&#xd4;" horiz-adv-x="494" 
d="M76 828l118 152h105l118 -152h-115l-55 78l-56 -78h-115zM247 -16q-84 0 -134.5 50.5t-50.5 134.5v412q0 84 50.5 134.5t134.5 50.5t134.5 -50.5t50.5 -134.5v-412q0 -84 -50.5 -134.5t-134.5 -50.5zM247 119q24 0 37 13.5t13 36.5v412q0 23 -13 36.5t-37 13.5t-37 -13.5
t-13 -36.5v-412q0 -23 13 -36.5t37 -13.5z" />
    <glyph glyph-name="Otilde" unicode="&#xd5;" horiz-adv-x="494" 
d="M329 823q-43 0 -85 29q-25 18 -38 18q-11 0 -11 -13v-29h-101v39q0 38 19.5 60.5t51.5 22.5q45 0 81 -26q29 -21 42 -21q11 0 11 13v29h101v-39q0 -38 -19.5 -60.5t-51.5 -22.5zM247 -16q-84 0 -134.5 50.5t-50.5 134.5v412q0 84 50.5 134.5t134.5 50.5t134.5 -50.5
t50.5 -134.5v-412q0 -84 -50.5 -134.5t-134.5 -50.5zM247 119q24 0 37 13.5t13 36.5v412q0 23 -13 36.5t-37 13.5t-37 -13.5t-13 -36.5v-412q0 -23 13 -36.5t37 -13.5z" />
    <glyph glyph-name="Odieresis" unicode="&#xd6;" horiz-adv-x="494" 
d="M108 848v132h110v-132h-110zM278 848v132h110v-132h-110zM247 -16q-84 0 -134.5 50.5t-50.5 134.5v412q0 84 50.5 134.5t134.5 50.5t134.5 -50.5t50.5 -134.5v-412q0 -84 -50.5 -134.5t-134.5 -50.5zM247 119q24 0 37 13.5t13 36.5v412q0 23 -13 36.5t-37 13.5t-37 -13.5
t-13 -36.5v-412q0 -23 13 -36.5t37 -13.5z" />
    <glyph glyph-name="multiply" unicode="&#xd7;" horiz-adv-x="464" 
d="M422 183l-96 -96l-94 94l-94 -94l-96 96l94 94l-93 93l96 96l93 -93l93 93l96 -96l-93 -93z" />
    <glyph glyph-name="Oslash" unicode="&#xd8;" horiz-adv-x="494" 
d="M499 783l-74 -144q7 -31 7 -58v-412q0 -84 -50.5 -134.5t-134.5 -50.5t-135 51l-36 -69h-80l74 143q-8 29 -8 60v412q0 84 50.5 134.5t134.5 50.5q86 0 136 -52l36 69h80zM197 581v-227l100 193v34q0 23 -13 36.5t-37 13.5t-37 -13.5t-13 -36.5zM297 169v224l-100 -193
v-31q0 -23 13 -36.5t37 -13.5t37 13.5t13 36.5z" />
    <glyph glyph-name="Ugrave" unicode="&#xd9;" 
d="M208 808l-98 172h135l58 -172h-95zM438 750v-581q0 -84 -50.5 -134.5t-134.5 -50.5t-134.5 50.5t-50.5 134.5v581h135v-581q0 -23 13 -36.5t37 -13.5t37 13.5t13 36.5v581h135z" />
    <glyph glyph-name="Uacute" unicode="&#xda;" 
d="M205 808l58 172h135l-98 -172h-95zM438 750v-581q0 -84 -50.5 -134.5t-134.5 -50.5t-134.5 50.5t-50.5 134.5v581h135v-581q0 -23 13 -36.5t37 -13.5t37 13.5t13 36.5v581h135z" />
    <glyph glyph-name="Ucircumflex" unicode="&#xdb;" 
d="M82 828l118 152h105l118 -152h-115l-55 78l-56 -78h-115zM438 750v-581q0 -84 -50.5 -134.5t-134.5 -50.5t-134.5 50.5t-50.5 134.5v581h135v-581q0 -23 13 -36.5t37 -13.5t37 13.5t13 36.5v581h135z" />
    <glyph glyph-name="Udieresis" unicode="&#xdc;" 
d="M114 848v132h110v-132h-110zM284 848v132h110v-132h-110zM438 750v-581q0 -84 -50.5 -134.5t-134.5 -50.5t-134.5 50.5t-50.5 134.5v581h135v-581q0 -23 13 -36.5t37 -13.5t37 13.5t13 36.5v581h135z" />
    <glyph glyph-name="Yacute" unicode="&#xdd;" horiz-adv-x="453" 
d="M372 980l-98 -172h-95l58 172h135zM312 750h138l-155 -410v-340h-135v340l-157 410h138l87 -259z" />
    <glyph glyph-name="Thorn" unicode="&#xde;" horiz-adv-x="470" 
d="M73 0v750h135v-91h50q84 0 134.5 -50.5t50.5 -134.5v-100q0 -84 -50.5 -134.5t-134.5 -50.5h-50v-189h-135zM208 324h50q24 0 37 13.5t13 36.5v100q0 23 -13 36.5t-37 13.5h-50v-200z" />
    <glyph glyph-name="germandbls" unicode="&#xdf;" horiz-adv-x="502" 
d="M418 374q41 -50 41 -124v-80q0 -84 -50.5 -134.5t-134.5 -50.5h-32v135h32q24 0 37 13.5t13 36.5v80q0 23 -13 36.5t-37 13.5h-30v135h20q24 0 37 13.5t13 36.5v86q0 27 -16.5 43.5t-43.5 16.5t-43.5 -16.5t-16.5 -43.5v-691h-135v691q0 88 53.5 141.5t141.5 53.5
t141.5 -53.5t53.5 -141.5v-86q0 -65 -31 -111z" />
    <glyph glyph-name="agrave" unicode="&#xe0;" horiz-adv-x="440" 
d="M264 608h-95l-98 172h135zM214 563q80 0 127.5 -50.5t47.5 -134.5v-378h-125v25q-35 -38 -97 -38q-66 0 -102 41t-36 108q0 94 81 138q21 12 66.5 28.5t66.5 32.5t21 43v10q0 23 -13 36.5t-37 13.5t-37 -13.5t-13 -36.5v-30h-125v20q0 84 47.5 134.5t127.5 50.5zM208 102
q24 0 40 13.5t16 43.5v77q-11 -9 -39 -20.5t-32 -13.5q-39 -20 -39 -50q0 -21 14 -35.5t40 -14.5z" />
    <glyph glyph-name="aacute" unicode="&#xe1;" horiz-adv-x="440" 
d="M359 780l-98 -172h-95l58 172h135zM214 563q80 0 127.5 -50.5t47.5 -134.5v-378h-125v25q-35 -38 -97 -38q-66 0 -102 41t-36 108q0 94 81 138q21 12 66.5 28.5t66.5 32.5t21 43v10q0 23 -13 36.5t-37 13.5t-37 -13.5t-13 -36.5v-30h-125v20q0 84 47.5 134.5t127.5 50.5z
M208 102q24 0 40 13.5t16 43.5v77q-11 -9 -39 -20.5t-32 -13.5q-39 -20 -39 -50q0 -21 14 -35.5t40 -14.5z" />
    <glyph glyph-name="acircumflex" unicode="&#xe2;" horiz-adv-x="440" 
d="M214 706l-56 -78h-115l118 152h105l118 -152h-115zM214 563q80 0 127.5 -50.5t47.5 -134.5v-378h-125v25q-35 -38 -97 -38q-66 0 -102 41t-36 108q0 94 81 138q21 12 66.5 28.5t66.5 32.5t21 43v10q0 23 -13 36.5t-37 13.5t-37 -13.5t-13 -36.5v-30h-125v20
q0 84 47.5 134.5t127.5 50.5zM208 102q24 0 40 13.5t16 43.5v77q-11 -9 -39 -20.5t-32 -13.5q-39 -20 -39 -50q0 -21 14 -35.5t40 -14.5z" />
    <glyph glyph-name="atilde" unicode="&#xe3;" horiz-adv-x="440" 
d="M162 657v-29h-101v39q0 38 19.5 60.5t51.5 22.5q45 0 81 -26q29 -21 42 -21q11 0 11 13v29h101v-39q0 -38 -19.5 -60.5t-51.5 -22.5q-43 0 -85 29q-25 18 -38 18q-11 0 -11 -13zM214 563q80 0 127.5 -50.5t47.5 -134.5v-378h-125v25q-35 -38 -97 -38q-66 0 -102 41
t-36 108q0 94 81 138q21 12 66.5 28.5t66.5 32.5t21 43v10q0 23 -13 36.5t-37 13.5t-37 -13.5t-13 -36.5v-30h-125v20q0 84 47.5 134.5t127.5 50.5zM208 102q24 0 40 13.5t16 43.5v77q-11 -9 -39 -20.5t-32 -13.5q-39 -20 -39 -50q0 -21 14 -35.5t40 -14.5z" />
    <glyph glyph-name="adieresis" unicode="&#xe4;" horiz-adv-x="440" 
d="M185 780v-132h-110v132h110zM355 780v-132h-110v132h110zM214 563q80 0 127.5 -50.5t47.5 -134.5v-378h-125v25q-35 -38 -97 -38q-66 0 -102 41t-36 108q0 94 81 138q21 12 66.5 28.5t66.5 32.5t21 43v10q0 23 -13 36.5t-37 13.5t-37 -13.5t-13 -36.5v-30h-125v20
q0 84 47.5 134.5t127.5 50.5zM208 102q24 0 40 13.5t16 43.5v77q-11 -9 -39 -20.5t-32 -13.5q-39 -20 -39 -50q0 -21 14 -35.5t40 -14.5z" />
    <glyph glyph-name="aring" unicode="&#xe5;" horiz-adv-x="440" 
d="M214 568q-46 0 -78 31t-32 79q0 49 32 80t78 31t78.5 -31t32.5 -80q0 -48 -32.5 -79t-78.5 -31zM214 714q-15 0 -25 -10t-10 -26q0 -15 10 -25t25 -10t25.5 10t10.5 25q0 16 -10.5 26t-25.5 10zM214 563q80 0 127.5 -50.5t47.5 -134.5v-378h-125v25q-35 -38 -97 -38
q-66 0 -102 41t-36 108q0 94 81 138q21 12 66.5 28.5t66.5 32.5t21 43v10q0 23 -13 36.5t-37 13.5t-37 -13.5t-13 -36.5v-30h-125v20q0 84 47.5 134.5t127.5 50.5zM208 102q24 0 40 13.5t16 43.5v77q-11 -9 -39 -20.5t-32 -13.5q-39 -20 -39 -50q0 -21 14 -35.5t40 -14.5z
" />
    <glyph glyph-name="ae" unicode="&#xe6;" horiz-adv-x="655" 
d="M614 243h-225v-81q0 -23 13 -36.5t37 -13.5t37 13.5t13 36.5v20h125v-10q0 -84 -47.5 -134.5t-127.5 -50.5q-95 0 -143 70q-38 -70 -129 -70q-66 0 -102 41t-36 108q0 94 81 138q21 12 66.5 28.5t66.5 32.5t21 43v10q0 23 -13 36.5t-37 13.5t-37 -13.5t-13 -36.5v-30
h-125v20q0 84 47.5 134.5t127.5 50.5q67 0 113 -37q45 37 112 37q80 0 127.5 -50.5t47.5 -134.5v-135zM389 388v-30h100v30q0 23 -13 36.5t-37 13.5t-37 -13.5t-13 -36.5zM264 159v77q-11 -9 -39 -20.5t-32 -13.5q-39 -20 -39 -50q0 -21 14 -35.5t40 -14.5q24 0 40 13.5
t16 43.5z" />
    <glyph glyph-name="ccedilla" unicode="&#xe7;" horiz-adv-x="420" 
d="M393 368h-125v20q0 23 -13 36.5t-37 13.5t-37 -13.5t-13 -36.5v-226q0 -23 13 -36.5t37 -13.5t37 13.5t13 36.5v20h125v-10q0 -69 -32.5 -116t-90.5 -63v-47q52 6 86 -25t34 -77q0 -52 -33 -84t-87 -32h-90v90h90q30 0 30 26q0 12 -8.5 19.5t-21.5 7.5h-50l-40 20v99
q-64 12 -100.5 60.5t-36.5 121.5v206q0 84 47.5 134.5t127.5 50.5t127.5 -50.5t47.5 -134.5v-10z" />
    <glyph glyph-name="egrave" unicode="&#xe8;" horiz-adv-x="434" 
d="M268 608h-95l-98 172h135zM393 243h-225v-81q0 -23 13 -36.5t37 -13.5t37 13.5t13 36.5v20h125v-10q0 -84 -47.5 -134.5t-127.5 -50.5t-127.5 50.5t-47.5 134.5v206q0 84 47.5 134.5t127.5 50.5t127.5 -50.5t47.5 -134.5v-135zM218 438q-24 0 -37 -13.5t-13 -36.5v-30
h100v30q0 23 -13 36.5t-37 13.5z" />
    <glyph glyph-name="eacute" unicode="&#xe9;" horiz-adv-x="434" 
d="M363 780l-98 -172h-95l58 172h135zM393 243h-225v-81q0 -23 13 -36.5t37 -13.5t37 13.5t13 36.5v20h125v-10q0 -84 -47.5 -134.5t-127.5 -50.5t-127.5 50.5t-47.5 134.5v206q0 84 47.5 134.5t127.5 50.5t127.5 -50.5t47.5 -134.5v-135zM218 438q-24 0 -37 -13.5
t-13 -36.5v-30h100v30q0 23 -13 36.5t-37 13.5z" />
    <glyph glyph-name="ecircumflex" unicode="&#xea;" horiz-adv-x="434" 
d="M218 706l-56 -78h-115l118 152h105l118 -152h-115zM393 243h-225v-81q0 -23 13 -36.5t37 -13.5t37 13.5t13 36.5v20h125v-10q0 -84 -47.5 -134.5t-127.5 -50.5t-127.5 50.5t-47.5 134.5v206q0 84 47.5 134.5t127.5 50.5t127.5 -50.5t47.5 -134.5v-135zM218 438
q-24 0 -37 -13.5t-13 -36.5v-30h100v30q0 23 -13 36.5t-37 13.5z" />
    <glyph glyph-name="edieresis" unicode="&#xeb;" horiz-adv-x="434" 
d="M189 780v-132h-110v132h110zM359 780v-132h-110v132h110zM393 243h-225v-81q0 -23 13 -36.5t37 -13.5t37 13.5t13 36.5v20h125v-10q0 -84 -47.5 -134.5t-127.5 -50.5t-127.5 50.5t-47.5 134.5v206q0 84 47.5 134.5t127.5 50.5t127.5 -50.5t47.5 -134.5v-135zM218 438
q-24 0 -37 -13.5t-13 -36.5v-30h100v30q0 23 -13 36.5t-37 13.5z" />
    <glyph glyph-name="igrave" unicode="&#xec;" horiz-adv-x="243" 
d="M77 608l-98 172h135l58 -172h-95zM59 0v550h125v-550h-125z" />
    <glyph glyph-name="iacute" unicode="&#xed;" horiz-adv-x="243" 
d="M74 608l58 172h135l-98 -172h-95zM59 0v550h125v-550h-125z" />
    <glyph glyph-name="icircumflex" unicode="&#xee;" horiz-adv-x="243" 
d="M-49 628l118 152h105l118 -152h-115l-55 78l-56 -78h-115zM59 0v550h125v-550h-125z" />
    <glyph glyph-name="idieresis" unicode="&#xef;" horiz-adv-x="243" 
d="M-17 648v132h110v-132h-110zM153 648v132h110v-132h-110zM59 0v550h125v-550h-125z" />
    <glyph glyph-name="eth" unicode="&#xf0;" horiz-adv-x="458" 
d="M437 687v-70l-38 -10v-607h-125v23q-34 -36 -93 -36q-132 0 -132 175v226q0 175 132 175q59 0 93 -36v48l-48 -13v70l41 11q-13 22 -43 22h-28v85h78q41 0 70.5 -20t43.5 -56zM224 112q24 0 37 13.5t13 36.5v226q0 23 -13 36.5t-37 13.5t-37 -13.5t-13 -36.5v-226
q0 -23 13 -36.5t37 -13.5z" />
    <glyph glyph-name="ntilde" unicode="&#xf1;" horiz-adv-x="462" 
d="M182 657v-29h-101v39q0 38 19.5 60.5t51.5 22.5q45 0 81 -26q29 -21 42 -21q11 0 11 13v29h101v-39q0 -38 -19.5 -60.5t-51.5 -22.5q-43 0 -85 29q-25 18 -38 18q-11 0 -11 -13zM277 563q62 0 97 -46t35 -129v-388h-125v388q0 23 -13 36.5t-37 13.5t-37 -13.5t-13 -36.5
v-388h-125v550h125v-26q34 39 93 39z" />
    <glyph glyph-name="ograve" unicode="&#xf2;" horiz-adv-x="436" 
d="M173 608l-98 172h135l58 -172h-95zM218 -13q-80 0 -127.5 50.5t-47.5 134.5v206q0 84 47.5 134.5t127.5 50.5t127.5 -50.5t47.5 -134.5v-206q0 -84 -47.5 -134.5t-127.5 -50.5zM218 112q24 0 37 13.5t13 36.5v226q0 23 -13 36.5t-37 13.5t-37 -13.5t-13 -36.5v-226
q0 -23 13 -36.5t37 -13.5z" />
    <glyph glyph-name="oacute" unicode="&#xf3;" horiz-adv-x="436" 
d="M170 608l58 172h135l-98 -172h-95zM218 -13q-80 0 -127.5 50.5t-47.5 134.5v206q0 84 47.5 134.5t127.5 50.5t127.5 -50.5t47.5 -134.5v-206q0 -84 -47.5 -134.5t-127.5 -50.5zM218 112q24 0 37 13.5t13 36.5v226q0 23 -13 36.5t-37 13.5t-37 -13.5t-13 -36.5v-226
q0 -23 13 -36.5t37 -13.5z" />
    <glyph glyph-name="ocircumflex" unicode="&#xf4;" horiz-adv-x="436" 
d="M47 628l118 152h105l118 -152h-115l-55 78l-56 -78h-115zM218 -13q-80 0 -127.5 50.5t-47.5 134.5v206q0 84 47.5 134.5t127.5 50.5t127.5 -50.5t47.5 -134.5v-206q0 -84 -47.5 -134.5t-127.5 -50.5zM218 112q24 0 37 13.5t13 36.5v226q0 23 -13 36.5t-37 13.5t-37 -13.5
t-13 -36.5v-226q0 -23 13 -36.5t37 -13.5z" />
    <glyph glyph-name="otilde" unicode="&#xf5;" horiz-adv-x="436" 
d="M300 623q-43 0 -85 29q-25 18 -38 18q-11 0 -11 -13v-29h-101v39q0 38 19.5 60.5t51.5 22.5q45 0 81 -26q29 -21 42 -21q11 0 11 13v29h101v-39q0 -38 -19.5 -60.5t-51.5 -22.5zM218 -13q-80 0 -127.5 50.5t-47.5 134.5v206q0 84 47.5 134.5t127.5 50.5t127.5 -50.5
t47.5 -134.5v-206q0 -84 -47.5 -134.5t-127.5 -50.5zM218 112q24 0 37 13.5t13 36.5v226q0 23 -13 36.5t-37 13.5t-37 -13.5t-13 -36.5v-226q0 -23 13 -36.5t37 -13.5z" />
    <glyph glyph-name="odieresis" unicode="&#xf6;" horiz-adv-x="436" 
d="M79 648v132h110v-132h-110zM249 648v132h110v-132h-110zM218 -13q-80 0 -127.5 50.5t-47.5 134.5v206q0 84 47.5 134.5t127.5 50.5t127.5 -50.5t47.5 -134.5v-206q0 -84 -47.5 -134.5t-127.5 -50.5zM218 112q24 0 37 13.5t13 36.5v226q0 23 -13 36.5t-37 13.5t-37 -13.5
t-13 -36.5v-226q0 -23 13 -36.5t37 -13.5z" />
    <glyph glyph-name="divide" unicode="&#xf7;" horiz-adv-x="524" 
d="M195 381v135h135v-135h-135zM42 208v135h440v-135h-440zM195 36v135h135v-135h-135z" />
    <glyph glyph-name="oslash" unicode="&#xf8;" horiz-adv-x="436" 
d="M413 570l-46 -87q26 -44 26 -105v-206q0 -84 -47.5 -134.5t-127.5 -50.5q-57 0 -98 26l-17 -33h-80l46 87q-26 44 -26 105v206q0 84 47.5 134.5t127.5 50.5q57 0 98 -26l17 33h80zM168 388v-132l88 167q-14 15 -38 15t-37 -13.5t-13 -36.5zM268 162v132l-88 -167
q13 -15 38 -15q24 0 37 13.5t13 36.5z" />
    <glyph glyph-name="ugrave" unicode="&#xf9;" horiz-adv-x="463" 
d="M282 608h-95l-98 172h135zM279 550h125v-550h-125v23q-34 -36 -93 -36q-132 0 -132 175v388h125v-388q0 -23 13 -36.5t37 -13.5t37 13.5t13 36.5v388z" />
    <glyph glyph-name="uacute" unicode="&#xfa;" horiz-adv-x="463" 
d="M377 780l-98 -172h-95l58 172h135zM279 550h125v-550h-125v23q-34 -36 -93 -36q-132 0 -132 175v388h125v-388q0 -23 13 -36.5t37 -13.5t37 13.5t13 36.5v388z" />
    <glyph glyph-name="ucircumflex" unicode="&#xfb;" horiz-adv-x="463" 
d="M232 706l-56 -78h-115l118 152h105l118 -152h-115zM279 550h125v-550h-125v23q-34 -36 -93 -36q-132 0 -132 175v388h125v-388q0 -23 13 -36.5t37 -13.5t37 13.5t13 36.5v388z" />
    <glyph glyph-name="udieresis" unicode="&#xfc;" horiz-adv-x="463" 
d="M203 780v-132h-110v132h110zM373 780v-132h-110v132h110zM279 550h125v-550h-125v23q-34 -36 -93 -36q-132 0 -132 175v388h125v-388q0 -23 13 -36.5t37 -13.5t37 13.5t13 36.5v388z" />
    <glyph glyph-name="yacute" unicode="&#xfd;" horiz-adv-x="425" 
d="M358 780l-98 -172h-95l58 172h135zM290 550h136l-198 -730h-126l48 180l-151 550h136l79 -336z" />
    <glyph glyph-name="thorn" unicode="&#xfe;" horiz-adv-x="458" 
d="M277 563q132 0 132 -175v-226q0 -175 -132 -175q-59 0 -93 36v-203h-125v930h125v-223q34 36 93 36zM284 162v226q0 23 -13 36.5t-37 13.5t-37 -13.5t-13 -36.5v-226q0 -23 13 -36.5t37 -13.5t37 13.5t13 36.5z" />
    <glyph glyph-name="ydieresis" unicode="&#xff;" horiz-adv-x="425" 
d="M184 780v-132h-110v132h110zM354 780v-132h-110v132h110zM290 550h136l-198 -730h-126l48 180l-151 550h136l79 -336z" />
    <glyph glyph-name="Amacron" unicode="&#x100;" horiz-adv-x="457" 
d="M350 900v-90h-241v90h241zM303 750l139 -750h-138l-17 117h-116l-18 -117h-138l142 750h146zM191 252h76l-37 255z" />
    <glyph glyph-name="amacron" unicode="&#x101;" horiz-adv-x="440" 
d="M335 700v-90h-241v90h241zM214 563q80 0 127.5 -50.5t47.5 -134.5v-378h-125v25q-35 -38 -97 -38q-66 0 -102 41t-36 108q0 94 81 138q21 12 66.5 28.5t66.5 32.5t21 43v10q0 23 -13 36.5t-37 13.5t-37 -13.5t-13 -36.5v-30h-125v20q0 84 47.5 134.5t127.5 50.5zM208 102
q24 0 40 13.5t16 43.5v77q-11 -9 -39 -20.5t-32 -13.5q-39 -20 -39 -50q0 -21 14 -35.5t40 -14.5z" />
    <glyph glyph-name="Abreve" unicode="&#x102;" horiz-adv-x="457" 
d="M229 845q-58 0 -93.5 33t-35.5 88v14h85v-14q0 -21 12 -33.5t32 -12.5t31.5 12.5t11.5 33.5v14h85v-14q0 -55 -35 -88t-93 -33zM303 750l139 -750h-138l-17 117h-116l-18 -117h-138l142 750h146zM191 252h76l-37 255z" />
    <glyph glyph-name="abreve" unicode="&#x103;" horiz-adv-x="440" 
d="M214 645q-58 0 -93.5 33t-35.5 88v14h85v-14q0 -21 12 -33.5t32 -12.5t31.5 12.5t11.5 33.5v14h85v-14q0 -55 -35 -88t-93 -33zM214 563q80 0 127.5 -50.5t47.5 -134.5v-378h-125v25q-35 -38 -97 -38q-66 0 -102 41t-36 108q0 94 81 138q21 12 66.5 28.5t66.5 32.5t21 43
v10q0 23 -13 36.5t-37 13.5t-37 -13.5t-13 -36.5v-30h-125v20q0 84 47.5 134.5t127.5 50.5zM208 102q24 0 40 13.5t16 43.5v77q-11 -9 -39 -20.5t-32 -13.5q-39 -20 -39 -50q0 -21 14 -35.5t40 -14.5z" />
    <glyph glyph-name="Aogonek" unicode="&#x104;" horiz-adv-x="457" 
d="M424 -159h20v-90h-30q-70 0 -110 36t-40 93q0 66 59 120h-19l-17 117h-116l-18 -117h-138l142 750h146l139 -750h-31q-57 -46 -57 -97q0 -27 18.5 -44.5t51.5 -17.5zM191 252h76l-37 255z" />
    <glyph glyph-name="aogonek" unicode="&#x105;" horiz-adv-x="440" 
d="M374 -159h20v-90h-30q-70 0 -110 36t-40 93q0 66 59 120h-9v25q-35 -38 -97 -38q-66 0 -102 41t-36 108q0 94 81 138q21 12 66.5 28.5t66.5 32.5t21 43v10q0 23 -13 36.5t-37 13.5t-37 -13.5t-13 -36.5v-30h-125v20q0 84 47.5 134.5t127.5 50.5t127.5 -50.5t47.5 -134.5
v-378h-28q-57 -46 -57 -97q0 -27 18.5 -44.5t51.5 -17.5zM208 102q24 0 40 13.5t16 43.5v77q-11 -9 -39 -20.5t-32 -13.5q-39 -20 -39 -50q0 -21 14 -35.5t40 -14.5z" />
    <glyph glyph-name="Cacute" unicode="&#x106;" horiz-adv-x="466" 
d="M199 808l58 172h135l-98 -172h-95zM432 209v-40q0 -84 -50.5 -134.5t-134.5 -50.5t-134.5 50.5t-50.5 134.5v412q0 84 50.5 134.5t134.5 50.5t134.5 -50.5t50.5 -134.5v-40h-135v40q0 23 -13 36.5t-37 13.5t-37 -13.5t-13 -36.5v-412q0 -23 13 -36.5t37 -13.5t37 13.5
t13 36.5v40h135z" />
    <glyph glyph-name="cacute" unicode="&#x107;" horiz-adv-x="420" 
d="M170 608l58 172h135l-98 -172h-95zM393 182v-10q0 -84 -47.5 -134.5t-127.5 -50.5t-127.5 50.5t-47.5 134.5v206q0 84 47.5 134.5t127.5 50.5t127.5 -50.5t47.5 -134.5v-10h-125v20q0 23 -13 36.5t-37 13.5t-37 -13.5t-13 -36.5v-226q0 -23 13 -36.5t37 -13.5t37 13.5
t13 36.5v20h125z" />
    <glyph glyph-name="Ccircumflex" unicode="&#x108;" horiz-adv-x="466" 
d="M76 828l118 152h105l118 -152h-115l-55 78l-56 -78h-115zM432 209v-40q0 -84 -50.5 -134.5t-134.5 -50.5t-134.5 50.5t-50.5 134.5v412q0 84 50.5 134.5t134.5 50.5t134.5 -50.5t50.5 -134.5v-40h-135v40q0 23 -13 36.5t-37 13.5t-37 -13.5t-13 -36.5v-412
q0 -23 13 -36.5t37 -13.5t37 13.5t13 36.5v40h135z" />
    <glyph glyph-name="ccircumflex" unicode="&#x109;" horiz-adv-x="420" 
d="M47 628l118 152h105l118 -152h-115l-55 78l-56 -78h-115zM393 182v-10q0 -84 -47.5 -134.5t-127.5 -50.5t-127.5 50.5t-47.5 134.5v206q0 84 47.5 134.5t127.5 50.5t127.5 -50.5t47.5 -134.5v-10h-125v20q0 23 -13 36.5t-37 13.5t-37 -13.5t-13 -36.5v-226
q0 -23 13 -36.5t37 -13.5t37 13.5t13 36.5v20h125z" />
    <glyph glyph-name="Cdotaccent" unicode="&#x10a;" horiz-adv-x="466" 
d="M192 818v132h110v-132h-110zM432 209v-40q0 -84 -50.5 -134.5t-134.5 -50.5t-134.5 50.5t-50.5 134.5v412q0 84 50.5 134.5t134.5 50.5t134.5 -50.5t50.5 -134.5v-40h-135v40q0 23 -13 36.5t-37 13.5t-37 -13.5t-13 -36.5v-412q0 -23 13 -36.5t37 -13.5t37 13.5t13 36.5
v40h135z" />
    <glyph glyph-name="cdotaccent" unicode="&#x10b;" horiz-adv-x="420" 
d="M163 618v132h110v-132h-110zM393 182v-10q0 -84 -47.5 -134.5t-127.5 -50.5t-127.5 50.5t-47.5 134.5v206q0 84 47.5 134.5t127.5 50.5t127.5 -50.5t47.5 -134.5v-10h-125v20q0 23 -13 36.5t-37 13.5t-37 -13.5t-13 -36.5v-226q0 -23 13 -36.5t37 -13.5t37 13.5t13 36.5
v20h125z" />
    <glyph glyph-name="Ccaron" unicode="&#x10c;" horiz-adv-x="466" 
d="M194 828l-118 152h115l56 -78l55 78h115l-118 -152h-105zM432 209v-40q0 -84 -50.5 -134.5t-134.5 -50.5t-134.5 50.5t-50.5 134.5v412q0 84 50.5 134.5t134.5 50.5t134.5 -50.5t50.5 -134.5v-40h-135v40q0 23 -13 36.5t-37 13.5t-37 -13.5t-13 -36.5v-412
q0 -23 13 -36.5t37 -13.5t37 13.5t13 36.5v40h135z" />
    <glyph glyph-name="ccaron" unicode="&#x10d;" horiz-adv-x="420" 
d="M165 628l-118 152h115l56 -78l55 78h115l-118 -152h-105zM393 182v-10q0 -84 -47.5 -134.5t-127.5 -50.5t-127.5 50.5t-47.5 134.5v206q0 84 47.5 134.5t127.5 50.5t127.5 -50.5t47.5 -134.5v-10h-125v20q0 23 -13 36.5t-37 13.5t-37 -13.5t-13 -36.5v-226
q0 -23 13 -36.5t37 -13.5t37 13.5t13 36.5v20h125z" />
    <glyph glyph-name="Dcaron" unicode="&#x10e;" horiz-adv-x="501" 
d="M197 828l-118 152h115l56 -78l55 78h115l-118 -152h-105zM73 0v750h185q84 0 134.5 -50.5t50.5 -134.5v-380q0 -84 -50.5 -134.5t-134.5 -50.5h-185zM208 135h50q24 0 37 13.5t13 36.5v380q0 23 -13 36.5t-37 13.5h-50v-480z" />
    <glyph glyph-name="dcaron" unicode="&#x10f;" horiz-adv-x="661" 
d="M274 527v223h125v-750h-125v23q-34 -36 -93 -36q-132 0 -132 175v226q0 175 132 175q59 0 93 -36zM477 750h125l-40 -250h-125zM224 112q24 0 37 13.5t13 36.5v226q0 23 -13 36.5t-37 13.5t-37 -13.5t-13 -36.5v-226q0 -23 13 -36.5t37 -13.5z" />
    <glyph glyph-name="Dcroat" unicode="&#x110;" horiz-adv-x="501" 
d="M258 750q84 0 134.5 -50.5t50.5 -134.5v-380q0 -84 -50.5 -134.5t-134.5 -50.5h-185v318h-55v115h55v317h185zM308 185v380q0 23 -13 36.5t-37 13.5h-50v-182h60v-115h-60v-183h50q24 0 37 13.5t13 36.5z" />
    <glyph glyph-name="dcroat" unicode="&#x111;" horiz-adv-x="458" 
d="M461 704v-115h-62v-589h-125v23q-34 -36 -93 -36q-132 0 -132 175v226q0 175 132 175q59 0 93 -36v62h-63v115h63v46h125v-46h62zM224 112q24 0 37 13.5t13 36.5v226q0 23 -13 36.5t-37 13.5t-37 -13.5t-13 -36.5v-226q0 -23 13 -36.5t37 -13.5z" />
    <glyph glyph-name="Emacron" unicode="&#x112;" horiz-adv-x="427" 
d="M93 900h241v-90h-241v90zM383 750v-135h-175v-150h148v-135h-148v-195h175v-135h-310v750h310z" />
    <glyph glyph-name="emacron" unicode="&#x113;" horiz-adv-x="434" 
d="M339 700v-90h-241v90h241zM393 243h-225v-81q0 -23 13 -36.5t37 -13.5t37 13.5t13 36.5v20h125v-10q0 -84 -47.5 -134.5t-127.5 -50.5t-127.5 50.5t-47.5 134.5v206q0 84 47.5 134.5t127.5 50.5t127.5 -50.5t47.5 -134.5v-135zM218 438q-24 0 -37 -13.5t-13 -36.5v-30
h100v30q0 23 -13 36.5t-37 13.5z" />
    <glyph glyph-name="Ebreve" unicode="&#x114;" horiz-adv-x="427" 
d="M213 845q-58 0 -93.5 33t-35.5 88v14h85v-14q0 -21 12 -33.5t32 -12.5t31.5 12.5t11.5 33.5v14h85v-14q0 -55 -35 -88t-93 -33zM383 750v-135h-175v-150h148v-135h-148v-195h175v-135h-310v750h310z" />
    <glyph glyph-name="ebreve" unicode="&#x115;" horiz-adv-x="434" 
d="M218 645q-58 0 -93.5 33t-35.5 88v14h85v-14q0 -21 12 -33.5t32 -12.5t31.5 12.5t11.5 33.5v14h85v-14q0 -55 -35 -88t-93 -33zM393 243h-225v-81q0 -23 13 -36.5t37 -13.5t37 13.5t13 36.5v20h125v-10q0 -84 -47.5 -134.5t-127.5 -50.5t-127.5 50.5t-47.5 134.5v206
q0 84 47.5 134.5t127.5 50.5t127.5 -50.5t47.5 -134.5v-135zM218 438q-24 0 -37 -13.5t-13 -36.5v-30h100v30q0 23 -13 36.5t-37 13.5z" />
    <glyph glyph-name="Edotaccent" unicode="&#x116;" horiz-adv-x="427" 
d="M158 818v132h110v-132h-110zM383 750v-135h-175v-150h148v-135h-148v-195h175v-135h-310v750h310z" />
    <glyph glyph-name="edotaccent" unicode="&#x117;" horiz-adv-x="434" 
d="M273 750v-132h-110v132h110zM393 243h-225v-81q0 -23 13 -36.5t37 -13.5t37 13.5t13 36.5v20h125v-10q0 -84 -47.5 -134.5t-127.5 -50.5t-127.5 50.5t-47.5 134.5v206q0 84 47.5 134.5t127.5 50.5t127.5 -50.5t47.5 -134.5v-135zM218 438q-24 0 -37 -13.5t-13 -36.5v-30
h100v30q0 23 -13 36.5t-37 13.5z" />
    <glyph glyph-name="Eogonek" unicode="&#x118;" horiz-adv-x="427" 
d="M383 615h-175v-150h148v-135h-148v-195h175v-135h-112q-57 -46 -57 -97q0 -27 18.5 -44.5t51.5 -17.5h20v-90h-30q-70 0 -110 36t-40 93q0 66 59 120h-110v750h310v-135z" />
    <glyph glyph-name="eogonek" unicode="&#x119;" horiz-adv-x="434" 
d="M393 243h-225v-81q0 -23 13 -36.5t37 -13.5t37 13.5t13 36.5v20h125v-10q0 -63 -28.5 -108.5t-78.5 -64.5q-55 -46 -55 -96q0 -27 18.5 -44.5t51.5 -17.5h20v-90h-30q-70 0 -110 36t-40 93q0 59 47 109q-67 9 -106 58.5t-39 124.5v206q0 84 47.5 134.5t127.5 50.5
t127.5 -50.5t47.5 -134.5v-135zM218 438q-24 0 -37 -13.5t-13 -36.5v-30h100v30q0 23 -13 36.5t-37 13.5z" />
    <glyph glyph-name="Ecaron" unicode="&#x11a;" horiz-adv-x="427" 
d="M160 828l-118 152h115l56 -78l55 78h115l-118 -152h-105zM383 750v-135h-175v-150h148v-135h-148v-195h175v-135h-310v750h310z" />
    <glyph glyph-name="ecaron" unicode="&#x11b;" horiz-adv-x="434" 
d="M270 628h-105l-118 152h115l56 -78l55 78h115zM393 243h-225v-81q0 -23 13 -36.5t37 -13.5t37 13.5t13 36.5v20h125v-10q0 -84 -47.5 -134.5t-127.5 -50.5t-127.5 50.5t-47.5 134.5v206q0 84 47.5 134.5t127.5 50.5t127.5 -50.5t47.5 -134.5v-135zM218 438
q-24 0 -37 -13.5t-13 -36.5v-30h100v30q0 23 -13 36.5t-37 13.5z" />
    <glyph glyph-name="Gcircumflex" unicode="&#x11c;" horiz-adv-x="484" 
d="M76 828l118 152h105l118 -152h-115l-55 78l-56 -78h-115zM247 -16q-84 0 -134.5 50.5t-50.5 134.5v412q0 84 50.5 134.5t134.5 50.5t134.5 -50.5t50.5 -134.5v-40h-135v40q0 23 -13 36.5t-37 13.5t-37 -13.5t-13 -36.5v-412q0 -23 13 -36.5t37 -13.5t37 13.5t13 36.5v71
h-63v135h198v-206q0 -84 -50.5 -134.5t-134.5 -50.5z" />
    <glyph glyph-name="gcircumflex" unicode="&#x11d;" horiz-adv-x="452" 
d="M218 706l-56 -78h-115l118 152h105l118 -152h-115zM268 550h125v-550q0 -83 -48 -133t-127 -50q-80 0 -127.5 50.5t-47.5 134.5v22h125v-32q0 -23 13 -36.5t37 -13.5t37 13.5t13 36.5v101q-34 -36 -93 -36q-132 0 -132 175v156q0 175 132 175q59 0 93 -36v23zM218 182
q24 0 37 13.5t13 36.5v156q0 23 -13 36.5t-37 13.5t-37 -13.5t-13 -36.5v-156q0 -23 13 -36.5t37 -13.5z" />
    <glyph glyph-name="Gbreve" unicode="&#x11e;" horiz-adv-x="484" 
d="M247 845q-58 0 -93.5 33t-35.5 88v14h85v-14q0 -21 12 -33.5t32 -12.5t31.5 12.5t11.5 33.5v14h85v-14q0 -55 -35 -88t-93 -33zM247 -16q-84 0 -134.5 50.5t-50.5 134.5v412q0 84 50.5 134.5t134.5 50.5t134.5 -50.5t50.5 -134.5v-40h-135v40q0 23 -13 36.5t-37 13.5
t-37 -13.5t-13 -36.5v-412q0 -23 13 -36.5t37 -13.5t37 13.5t13 36.5v71h-63v135h198v-206q0 -84 -50.5 -134.5t-134.5 -50.5z" />
    <glyph glyph-name="gbreve" unicode="&#x11f;" horiz-adv-x="452" 
d="M218 645q-58 0 -93.5 33t-35.5 88v14h85v-14q0 -21 12 -33.5t32 -12.5t31.5 12.5t11.5 33.5v14h85v-14q0 -55 -35 -88t-93 -33zM268 550h125v-550q0 -83 -48 -133t-127 -50q-80 0 -127.5 50.5t-47.5 134.5v22h125v-32q0 -23 13 -36.5t37 -13.5t37 13.5t13 36.5v101
q-34 -36 -93 -36q-132 0 -132 175v156q0 175 132 175q59 0 93 -36v23zM218 182q24 0 37 13.5t13 36.5v156q0 23 -13 36.5t-37 13.5t-37 -13.5t-13 -36.5v-156q0 -23 13 -36.5t37 -13.5z" />
    <glyph glyph-name="Gdotaccent" unicode="&#x120;" horiz-adv-x="484" 
d="M192 818v132h110v-132h-110zM247 -16q-84 0 -134.5 50.5t-50.5 134.5v412q0 84 50.5 134.5t134.5 50.5t134.5 -50.5t50.5 -134.5v-40h-135v40q0 23 -13 36.5t-37 13.5t-37 -13.5t-13 -36.5v-412q0 -23 13 -36.5t37 -13.5t37 13.5t13 36.5v71h-63v135h198v-206
q0 -84 -50.5 -134.5t-134.5 -50.5z" />
    <glyph glyph-name="gdotaccent" unicode="&#x121;" horiz-adv-x="452" 
d="M273 750v-132h-110v132h110zM268 550h125v-550q0 -83 -48 -133t-127 -50q-80 0 -127.5 50.5t-47.5 134.5v22h125v-32q0 -23 13 -36.5t37 -13.5t37 13.5t13 36.5v101q-34 -36 -93 -36q-132 0 -132 175v156q0 175 132 175q59 0 93 -36v23zM218 182q24 0 37 13.5t13 36.5
v156q0 23 -13 36.5t-37 13.5t-37 -13.5t-13 -36.5v-156q0 -23 13 -36.5t37 -13.5z" />
    <glyph glyph-name="Gcommaaccent" unicode="&#x122;" horiz-adv-x="484" 
d="M247 -16q-84 0 -134.5 50.5t-50.5 134.5v412q0 84 50.5 134.5t134.5 50.5t134.5 -50.5t50.5 -134.5v-40h-135v40q0 23 -13 36.5t-37 13.5t-37 -13.5t-13 -36.5v-412q0 -23 13 -36.5t37 -13.5t37 13.5t13 36.5v71h-63v135h198v-206q0 -84 -50.5 -134.5t-134.5 -50.5z
M157 -220l30 170h130l-80 -170h-80z" />
    <glyph glyph-name="gcommaaccent" unicode="&#x123;" horiz-adv-x="452" 
d="M268 550h125v-550q0 -83 -48 -133t-127 -50q-80 0 -127.5 50.5t-47.5 134.5v22h125v-32q0 -23 13 -36.5t37 -13.5t37 13.5t13 36.5v101q-34 -36 -93 -36q-132 0 -132 175v156q0 175 132 175q59 0 93 -36v23zM218 182q24 0 37 13.5t13 36.5v156q0 23 -13 36.5t-37 13.5
t-37 -13.5t-13 -36.5v-156q0 -23 13 -36.5t37 -13.5zM128 -403l30 170h130l-80 -170h-80z" />
    <glyph glyph-name="Hcircumflex" unicode="&#x124;" horiz-adv-x="496" 
d="M77 828l118 152h105l118 -152h-115l-55 78l-56 -78h-115zM73 0v750h135v-375h80v375h135v-750h-135v240h-80v-240h-135z" />
    <glyph glyph-name="hcircumflex" unicode="&#x125;" horiz-adv-x="464" 
d="M120 906l-56 -78h-115l118 152h105l118 -152h-115zM277 563q56 0 94 -34t38 -111v-418h-125v388q0 23 -13 36.5t-37 13.5t-37 -13.5t-13 -36.5v-388h-125v750h125v-223q34 36 93 36z" />
    <glyph glyph-name="Hbar" unicode="&#x126;" horiz-adv-x="496" 
d="M473 608v-115h-50v-493h-135v240h-80v-240h-135v493h-50v115h50v142h135v-142h80v142h135v-142h50zM288 375v118h-80v-118h80z" />
    <glyph glyph-name="hbar" unicode="&#x127;" horiz-adv-x="464" 
d="M277 563q56 0 94 -34t38 -111v-418h-125v388q0 23 -13 36.5t-37 13.5t-37 -13.5t-13 -36.5v-388h-125v596h-64v115h64v39h125v-39h61v-115h-61v-69q34 36 93 36z" />
    <glyph glyph-name="Itilde" unicode="&#x128;" horiz-adv-x="281" 
d="M223 823q-43 0 -85 29q-25 18 -38 18q-11 0 -11 -13v-29h-101v39q0 38 19.5 60.5t51.5 22.5q45 0 81 -26q29 -21 42 -21q11 0 11 13v29h101v-39q0 -38 -19.5 -60.5t-51.5 -22.5zM208 0h-135v750h135v-750z" />
    <glyph glyph-name="itilde" unicode="&#x129;" horiz-adv-x="243" 
d="M204 623q-43 0 -85 29q-25 18 -38 18q-11 0 -11 -13v-29h-101v39q0 38 19.5 60.5t51.5 22.5q45 0 81 -26q29 -21 42 -21q11 0 11 13v29h101v-39q0 -38 -19.5 -60.5t-51.5 -22.5zM59 0v550h125v-550h-125z" />
    <glyph glyph-name="Imacron" unicode="&#x12a;" horiz-adv-x="281" 
d="M21 900h241v-90h-241v90zM208 0h-135v750h135v-750z" />
    <glyph glyph-name="imacron" unicode="&#x12b;" horiz-adv-x="243" 
d="M2 700h241v-90h-241v90zM59 0v550h125v-550h-125z" />
    <glyph glyph-name="Iogonek" unicode="&#x12e;" horiz-adv-x="281" 
d="M159 0q-57 -46 -57 -97q0 -27 18.5 -44.5t51.5 -17.5h20v-90h-30q-70 0 -110 36t-40 93q0 67 61 122v748h135v-750h-49z" />
    <glyph glyph-name="iogonek" unicode="&#x12f;" horiz-adv-x="243" 
d="M177 750v-132h-110v132h110zM145 0q-57 -46 -57 -97q0 -27 18.5 -44.5t51.5 -17.5h20v-90h-30q-70 0 -110 36t-40 93q0 67 61 122v548h125v-550h-39z" />
    <glyph glyph-name="Idotaccent" unicode="&#x130;" horiz-adv-x="281" 
d="M86 818v132h110v-132h-110zM208 0h-135v750h135v-750z" />
    <glyph glyph-name="dotlessi" unicode="&#x131;" horiz-adv-x="243" 
d="M59 0v550h125v-550h-125z" />
    <glyph glyph-name="IJ" unicode="&#x132;" horiz-adv-x="610" 
d="M208 0h-135v750h135v-750zM290 -7v135h68q24 0 37 13.5t13 36.5v572h135v-572q0 -84 -50.5 -134.5t-134.5 -50.5h-68z" />
    <glyph glyph-name="ij" unicode="&#x133;" horiz-adv-x="486" 
d="M59 590v130h125v-130h-125zM302 590v130h125v-130h-125zM59 0v550h125v-550h-125zM217 -183v125h35q24 0 37 13.5t13 36.5v558h125v-548q0 -84 -47.5 -134.5t-127.5 -50.5h-35z" />
    <glyph glyph-name="Jcircumflex" unicode="&#x134;" horiz-adv-x="329" 
d="M21 828l118 152h105l118 -152h-115l-55 78l-56 -78h-115zM9 -7v135h68q24 0 37 13.5t13 36.5v572h135v-572q0 -84 -50.5 -134.5t-134.5 -50.5h-68z" />
    <glyph glyph-name="jcircumflex" unicode="&#x135;" horiz-adv-x="243" 
d="M-49 628l118 152h105l118 -152h-115l-55 78l-56 -78h-115zM-26 -183v125h35q24 0 37 13.5t13 36.5v558h125v-548q0 -84 -47.5 -134.5t-127.5 -50.5h-35z" />
    <glyph glyph-name="Kcommaaccent" unicode="&#x136;" horiz-adv-x="501" 
d="M493 750l-177 -268l167 -482h-145l-115 341l-15 -23v-318h-135v750h135v-211l140 211h145zM154 -220l30 170h130l-80 -170h-80z" />
    <glyph glyph-name="kcommaaccent" unicode="&#x137;" horiz-adv-x="446" 
d="M302 384l148 -384h-130l-100 270l-36 -50v-220h-125v750h125v-349l107 149h130zM128 -220l30 170h130l-80 -170h-80z" />
    <glyph glyph-name="kgreenlandic" unicode="&#x138;" horiz-adv-x="446" 
d="M450 0h-130l-136 365v-365h-125v550h125v-149l107 149h130l-119 -166z" />
    <glyph glyph-name="Lacute" unicode="&#x139;" horiz-adv-x="378" 
d="M129 808l58 172h135l-98 -172h-95zM208 750v-615h155v-135h-290v750h135z" />
    <glyph glyph-name="lacute" unicode="&#x13a;" horiz-adv-x="243" 
d="M74 808l58 172h135l-98 -172h-95zM59 0v750h125v-750h-125z" />
    <glyph glyph-name="Lcommaaccent" unicode="&#x13b;" horiz-adv-x="378" 
d="M208 750v-615h155v-135h-290v750h135zM87 -220l30 170h130l-80 -170h-80z" />
    <glyph glyph-name="lcommaaccent" unicode="&#x13c;" horiz-adv-x="243" 
d="M59 0v750h125v-750h-125zM32 -220l30 170h130l-80 -170h-80z" />
    <glyph glyph-name="Lcaron" unicode="&#x13d;" horiz-adv-x="378" 
d="M124 828l-118 152h115l56 -78l55 78h115l-118 -152h-105zM208 750v-615h155v-135h-290v750h135z" />
    <glyph glyph-name="lcaron" unicode="&#x13e;" horiz-adv-x="493" 
d="M59 0v750h125v-750h-125zM269 500l40 250h125l-40 -250h-125z" />
    <glyph glyph-name="Ldot" unicode="&#x13f;" horiz-adv-x="375" 
d="M208 750v-615h155v-135h-290v750h135zM248 315v120h115v-120h-115z" />
    <glyph glyph-name="ldot" unicode="&#x140;" horiz-adv-x="419" 
d="M59 0v750h125v-750h-125zM245 315v120h115v-120h-115z" />
    <glyph glyph-name="Lslash" unicode="&#x141;" horiz-adv-x="378" 
d="M208 135h155v-135h-290v296l-83 -28v115l83 28v339h135v-294l82 27v-115l-82 -27v-206z" />
    <glyph glyph-name="lslash" unicode="&#x142;" horiz-adv-x="243" 
d="M274 479v-130l-90 -23v-326h-125v295l-90 -23v130l90 23v325h125v-294z" />
    <glyph glyph-name="Nacute" unicode="&#x143;" 
d="M398 980l-98 -172h-95l58 172h135zM308 750h125v-750h-100l-135 384v-384h-125v750h100l135 -384v384z" />
    <glyph glyph-name="nacute" unicode="&#x144;" horiz-adv-x="462" 
d="M379 780l-98 -172h-95l58 172h135zM277 563q62 0 97 -46t35 -129v-388h-125v388q0 23 -13 36.5t-37 13.5t-37 -13.5t-13 -36.5v-388h-125v550h125v-26q34 39 93 39z" />
    <glyph glyph-name="Ncommaaccent" unicode="&#x145;" 
d="M308 750h125v-750h-100l-135 384v-384h-125v750h100l135 -384v384zM163 -220l30 170h130l-80 -170h-80z" />
    <glyph glyph-name="ncommaaccent" unicode="&#x146;" horiz-adv-x="462" 
d="M277 563q62 0 97 -46t35 -129v-388h-125v388q0 23 -13 36.5t-37 13.5t-37 -13.5t-13 -36.5v-388h-125v550h125v-26q34 39 93 39zM144 -220l30 170h130l-80 -170h-80z" />
    <glyph glyph-name="Ncaron" unicode="&#x147;" 
d="M305 828h-105l-118 152h115l56 -78l55 78h115zM308 750h125v-750h-100l-135 384v-384h-125v750h100l135 -384v384z" />
    <glyph glyph-name="ncaron" unicode="&#x148;" horiz-adv-x="462" 
d="M286 628h-105l-118 152h115l56 -78l55 78h115zM277 563q62 0 97 -46t35 -129v-388h-125v388q0 23 -13 36.5t-37 13.5t-37 -13.5t-13 -36.5v-388h-125v550h125v-26q34 39 93 39z" />
    <glyph glyph-name="napostrophe" unicode="&#x149;" horiz-adv-x="657" 
d="M59 606v144h135v-144l-32 -106h-85l32 106h-50zM472 563q62 0 97 -46t35 -129v-388h-125v388q0 23 -13 36.5t-37 13.5t-37 -13.5t-13 -36.5v-388h-125v550h125v-26q35 39 93 39z" />
    <glyph glyph-name="Omacron" unicode="&#x14c;" horiz-adv-x="494" 
d="M127 900h241v-90h-241v90zM247 -16q-84 0 -134.5 50.5t-50.5 134.5v412q0 84 50.5 134.5t134.5 50.5t134.5 -50.5t50.5 -134.5v-412q0 -84 -50.5 -134.5t-134.5 -50.5zM247 119q24 0 37 13.5t13 36.5v412q0 23 -13 36.5t-37 13.5t-37 -13.5t-13 -36.5v-412
q0 -23 13 -36.5t37 -13.5z" />
    <glyph glyph-name="omacron" unicode="&#x14d;" horiz-adv-x="436" 
d="M98 700h241v-90h-241v90zM218 -13q-80 0 -127.5 50.5t-47.5 134.5v206q0 84 47.5 134.5t127.5 50.5t127.5 -50.5t47.5 -134.5v-206q0 -84 -47.5 -134.5t-127.5 -50.5zM218 112q24 0 37 13.5t13 36.5v226q0 23 -13 36.5t-37 13.5t-37 -13.5t-13 -36.5v-226q0 -23 13 -36.5
t37 -13.5z" />
    <glyph glyph-name="Obreve" unicode="&#x14e;" horiz-adv-x="494" 
d="M247 845q-58 0 -93.5 33t-35.5 88v14h85v-14q0 -21 12 -33.5t32 -12.5t31.5 12.5t11.5 33.5v14h85v-14q0 -55 -35 -88t-93 -33zM247 -16q-84 0 -134.5 50.5t-50.5 134.5v412q0 84 50.5 134.5t134.5 50.5t134.5 -50.5t50.5 -134.5v-412q0 -84 -50.5 -134.5t-134.5 -50.5z
M247 119q24 0 37 13.5t13 36.5v412q0 23 -13 36.5t-37 13.5t-37 -13.5t-13 -36.5v-412q0 -23 13 -36.5t37 -13.5z" />
    <glyph glyph-name="obreve" unicode="&#x14f;" horiz-adv-x="436" 
d="M218 645q-58 0 -93.5 33t-35.5 88v14h85v-14q0 -21 12 -33.5t32 -12.5t31.5 12.5t11.5 33.5v14h85v-14q0 -55 -35 -88t-93 -33zM218 -13q-80 0 -127.5 50.5t-47.5 134.5v206q0 84 47.5 134.5t127.5 50.5t127.5 -50.5t47.5 -134.5v-206q0 -84 -47.5 -134.5t-127.5 -50.5z
M218 112q24 0 37 13.5t13 36.5v226q0 23 -13 36.5t-37 13.5t-37 -13.5t-13 -36.5v-226q0 -23 13 -36.5t37 -13.5z" />
    <glyph glyph-name="Ohungarumlaut" unicode="&#x150;" horiz-adv-x="494" 
d="M102 808l58 172h135l-98 -172h-95zM287 808l58 172h135l-98 -172h-95zM247 -16q-84 0 -134.5 50.5t-50.5 134.5v412q0 84 50.5 134.5t134.5 50.5t134.5 -50.5t50.5 -134.5v-412q0 -84 -50.5 -134.5t-134.5 -50.5zM247 119q24 0 37 13.5t13 36.5v412q0 23 -13 36.5
t-37 13.5t-37 -13.5t-13 -36.5v-412q0 -23 13 -36.5t37 -13.5z" />
    <glyph glyph-name="ohungarumlaut" unicode="&#x151;" horiz-adv-x="436" 
d="M73 608l58 172h135l-98 -172h-95zM258 608l58 172h135l-98 -172h-95zM218 -13q-80 0 -127.5 50.5t-47.5 134.5v206q0 84 47.5 134.5t127.5 50.5t127.5 -50.5t47.5 -134.5v-206q0 -84 -47.5 -134.5t-127.5 -50.5zM218 112q24 0 37 13.5t13 36.5v226q0 23 -13 36.5
t-37 13.5t-37 -13.5t-13 -36.5v-226q0 -23 13 -36.5t37 -13.5z" />
    <glyph glyph-name="OE" unicode="&#x152;" horiz-adv-x="742" 
d="M247 -16q-84 0 -134.5 50.5t-50.5 134.5v412q0 84 50.5 134.5t134.5 50.5q90 0 141 -57v41h310v-135h-175v-150h148v-135h-148v-195h175v-135h-310v41q-51 -57 -141 -57zM247 119q24 0 37 13.5t13 36.5v412q0 23 -13 36.5t-37 13.5t-37 -13.5t-13 -36.5v-412
q0 -23 13 -36.5t37 -13.5z" />
    <glyph glyph-name="oe" unicode="&#x153;" horiz-adv-x="659" 
d="M618 243h-225v-81q0 -23 13 -36.5t37 -13.5t37 13.5t13 36.5v20h125v-10q0 -84 -47.5 -134.5t-127.5 -50.5q-67 0 -112 37q-46 -37 -113 -37q-80 0 -127.5 50.5t-47.5 134.5v206q0 84 47.5 134.5t127.5 50.5q67 0 113 -37q45 37 112 37q80 0 127.5 -50.5t47.5 -134.5
v-135zM268 162v226q0 23 -13 36.5t-37 13.5t-37 -13.5t-13 -36.5v-226q0 -23 13 -36.5t37 -13.5t37 13.5t13 36.5zM393 388v-30h100v30q0 23 -13 36.5t-37 13.5t-37 -13.5t-13 -36.5z" />
    <glyph glyph-name="Racute" unicode="&#x154;" horiz-adv-x="504" 
d="M397 980l-98 -172h-95l58 172h135zM443 565v-120q0 -84 -51 -135q51 -36 51 -100v-210h-135v210q0 23 -13 36.5t-37 13.5h-50v-260h-135v750h185q84 0 134.5 -50.5t50.5 -134.5zM308 445v120q0 23 -13 36.5t-37 13.5h-50v-220h50q24 0 37 13.5t13 36.5z" />
    <glyph glyph-name="racute" unicode="&#x155;" horiz-adv-x="302" 
d="M329 780l-98 -172h-95l58 172h135zM184 521q34 36 93 36h25v-125h-68q-50 0 -50 -44v-388h-125v550h125v-29z" />
    <glyph glyph-name="Rcommaaccent" unicode="&#x156;" horiz-adv-x="504" 
d="M443 565v-120q0 -84 -51 -135q51 -36 51 -100v-210h-135v210q0 23 -13 36.5t-37 13.5h-50v-260h-135v750h185q84 0 134.5 -50.5t50.5 -134.5zM308 445v120q0 23 -13 36.5t-37 13.5h-50v-220h50q24 0 37 13.5t13 36.5zM162 -220l30 170h130l-80 -170h-80z" />
    <glyph glyph-name="rcommaaccent" unicode="&#x157;" horiz-adv-x="302" 
d="M277 557h25v-125h-68q-50 0 -50 -44v-388h-125v550h125v-29q34 36 93 36zM31 -220l30 170h130l-80 -170h-80z" />
    <glyph glyph-name="Rcaron" unicode="&#x158;" horiz-adv-x="504" 
d="M304 828h-105l-118 152h115l56 -78l55 78h115zM443 565v-120q0 -84 -51 -135q51 -36 51 -100v-210h-135v210q0 23 -13 36.5t-37 13.5h-50v-260h-135v750h185q84 0 134.5 -50.5t50.5 -134.5zM308 445v120q0 23 -13 36.5t-37 13.5h-50v-220h50q24 0 37 13.5t13 36.5z" />
    <glyph glyph-name="rcaron" unicode="&#x159;" horiz-adv-x="302" 
d="M236 628h-105l-118 152h115l56 -78l55 78h115zM184 521q34 36 93 36h25v-125h-68q-50 0 -50 -44v-388h-125v550h125v-29z" />
    <glyph glyph-name="Sacute" unicode="&#x15a;" horiz-adv-x="465" 
d="M185 808l58 172h135l-98 -172h-95zM234 -16q-84 0 -134.5 50.5t-50.5 134.5v40h135v-40q0 -23 13 -36.5t37 -13.5t37 13.5t13 36.5v77q0 23 -13 36.5t-37 13.5q-84 0 -134.5 50.5t-50.5 134.5v100q0 84 50.5 134.5t134.5 50.5t134.5 -50.5t50.5 -134.5v-40h-135v40
q0 23 -13 36.5t-37 13.5t-37 -13.5t-13 -36.5v-100q0 -23 13 -36.5t37 -13.5q84 0 134.5 -50.5t50.5 -134.5v-77q0 -84 -50.5 -134.5t-134.5 -50.5z" />
    <glyph glyph-name="sacute" unicode="&#x15b;" horiz-adv-x="419" 
d="M162 608l58 172h135l-98 -172h-95zM210 -13q-80 0 -127.5 50.5t-47.5 134.5v10h125v-20q0 -23 13 -36.5t37 -13.5q23 0 36.5 14.5t13.5 36.5q0 23 -13.5 39t-36.5 16q-80 0 -127.5 47t-47.5 123q0 79 47.5 127t127.5 48t127.5 -50.5t47.5 -134.5v-10h-125v20
q0 23 -13 36.5t-37 13.5q-23 0 -36.5 -14t-13.5 -36q0 -23 13.5 -39t36.5 -16q80 0 127.5 -47t47.5 -123q0 -79 -47.5 -127.5t-127.5 -48.5z" />
    <glyph glyph-name="Scircumflex" unicode="&#x15c;" horiz-adv-x="465" 
d="M62 828l118 152h105l118 -152h-115l-55 78l-56 -78h-115zM234 -16q-84 0 -134.5 50.5t-50.5 134.5v40h135v-40q0 -23 13 -36.5t37 -13.5t37 13.5t13 36.5v77q0 23 -13 36.5t-37 13.5q-84 0 -134.5 50.5t-50.5 134.5v100q0 84 50.5 134.5t134.5 50.5t134.5 -50.5
t50.5 -134.5v-40h-135v40q0 23 -13 36.5t-37 13.5t-37 -13.5t-13 -36.5v-100q0 -23 13 -36.5t37 -13.5q84 0 134.5 -50.5t50.5 -134.5v-77q0 -84 -50.5 -134.5t-134.5 -50.5z" />
    <glyph glyph-name="scircumflex" unicode="&#x15d;" horiz-adv-x="419" 
d="M39 628l118 152h105l118 -152h-115l-55 78l-56 -78h-115zM210 -13q-80 0 -127.5 50.5t-47.5 134.5v10h125v-20q0 -23 13 -36.5t37 -13.5q23 0 36.5 14.5t13.5 36.5q0 23 -13.5 39t-36.5 16q-80 0 -127.5 47t-47.5 123q0 79 47.5 127t127.5 48t127.5 -50.5t47.5 -134.5
v-10h-125v20q0 23 -13 36.5t-37 13.5q-23 0 -36.5 -14t-13.5 -36q0 -23 13.5 -39t36.5 -16q80 0 127.5 -47t47.5 -123q0 -79 -47.5 -127.5t-127.5 -48.5z" />
    <glyph glyph-name="Scedilla" unicode="&#x15e;" horiz-adv-x="465" 
d="M419 541h-135v40q0 23 -13 36.5t-37 13.5t-37 -13.5t-13 -36.5v-100q0 -23 13 -36.5t37 -13.5q84 0 134.5 -50.5t50.5 -134.5v-77q0 -70 -36 -117.5t-98 -61.5v-44q52 6 86 -25t34 -77q0 -52 -33 -84t-87 -32h-90v90h90q30 0 30 26q0 12 -8.5 19.5t-21.5 7.5h-50l-40 20
v96q-68 11 -107 60t-39 122v40h135v-40q0 -23 13 -36.5t37 -13.5t37 13.5t13 36.5v77q0 23 -13 36.5t-37 13.5q-84 0 -134.5 50.5t-50.5 134.5v100q0 84 50.5 134.5t134.5 50.5t134.5 -50.5t50.5 -134.5v-40z" />
    <glyph glyph-name="scedilla" unicode="&#x15f;" horiz-adv-x="419" 
d="M385 368h-125v20q0 23 -13 36.5t-37 13.5q-23 0 -36.5 -14t-13.5 -36q0 -23 13.5 -39t36.5 -16q80 0 127.5 -47t47.5 -123q0 -65 -32.5 -110t-90.5 -60v-47q52 6 86 -25t34 -77q0 -52 -33 -84t-87 -32h-90v90h90q30 0 30 26q0 12 -8.5 19.5t-21.5 7.5h-50l-40 20v99
q-64 12 -100.5 60.5t-36.5 121.5v10h125v-20q0 -23 13 -36.5t37 -13.5q23 0 36.5 14.5t13.5 36.5q0 23 -13.5 39t-36.5 16q-80 0 -127.5 47t-47.5 123q0 79 47.5 127t127.5 48t127.5 -50.5t47.5 -134.5v-10z" />
    <glyph glyph-name="Scaron" unicode="&#x160;" horiz-adv-x="465" 
d="M180 828l-118 152h115l56 -78l55 78h115l-118 -152h-105zM234 -16q-84 0 -134.5 50.5t-50.5 134.5v40h135v-40q0 -23 13 -36.5t37 -13.5t37 13.5t13 36.5v77q0 23 -13 36.5t-37 13.5q-84 0 -134.5 50.5t-50.5 134.5v100q0 84 50.5 134.5t134.5 50.5t134.5 -50.5
t50.5 -134.5v-40h-135v40q0 23 -13 36.5t-37 13.5t-37 -13.5t-13 -36.5v-100q0 -23 13 -36.5t37 -13.5q84 0 134.5 -50.5t50.5 -134.5v-77q0 -84 -50.5 -134.5t-134.5 -50.5z" />
    <glyph glyph-name="scaron" unicode="&#x161;" horiz-adv-x="419" 
d="M157 628l-118 152h115l56 -78l55 78h115l-118 -152h-105zM210 -13q-80 0 -127.5 50.5t-47.5 134.5v10h125v-20q0 -23 13 -36.5t37 -13.5q23 0 36.5 14.5t13.5 36.5q0 23 -13.5 39t-36.5 16q-80 0 -127.5 47t-47.5 123q0 79 47.5 127t127.5 48t127.5 -50.5t47.5 -134.5
v-10h-125v20q0 23 -13 36.5t-37 13.5q-23 0 -36.5 -14t-13.5 -36q0 -23 13.5 -39t36.5 -16q80 0 127.5 -47t47.5 -123q0 -79 -47.5 -127.5t-127.5 -48.5z" />
    <glyph glyph-name="uni0162" unicode="&#x162;" horiz-adv-x="375" 
d="M255 0h-22v-54q52 6 86 -25t34 -77q0 -52 -33 -84t-87 -32h-90v90h90q30 0 30 26q0 12 -8.5 19.5t-21.5 7.5h-50l-40 20v109h-23v615h-110v135h355v-135h-110v-615z" />
    <glyph glyph-name="uni0163" unicode="&#x163;" horiz-adv-x="342" 
d="M295 -54q52 6 86 -25t34 -77q0 -52 -33 -84t-87 -32h-90v90h90q30 0 30 26q0 12 -8.5 19.5t-21.5 7.5h-50l-40 20v109q-55 15 -85.5 58.5t-30.5 109.5v267h-90v115h90v130h125v-130h105v-115h-105v-267q0 -23 13 -36.5t37 -13.5h55v-125h-24v-47z" />
    <glyph glyph-name="Tcaron" unicode="&#x164;" horiz-adv-x="375" 
d="M135 828l-118 152h115l56 -78l55 78h115l-118 -152h-105zM120 0v615h-110v135h355v-135h-110v-615h-135z" />
    <glyph glyph-name="tcaron" unicode="&#x165;" horiz-adv-x="592" 
d="M368 500l40 250h125l-40 -250h-125zM264 -7q-81 0 -128 46t-47 129v267h-90v115h90v130h125v-130h105v-115h-105v-267q0 -23 13 -36.5t37 -13.5h55v-125h-55z" />
    <glyph glyph-name="Tbar" unicode="&#x166;" horiz-adv-x="375" 
d="M365 615h-110v-182h58v-115h-58v-318h-135v318h-57v115h57v182h-110v135h355v-135z" />
    <glyph glyph-name="tbar" unicode="&#x167;" horiz-adv-x="342" 
d="M319 435h-105v-102h101v-115h-101v-50q0 -23 13 -36.5t37 -13.5h55v-125h-55q-81 0 -128 46t-47 129v50h-74v115h74v102h-90v115h90v130h125v-130h105v-115z" />
    <glyph glyph-name="Utilde" unicode="&#x168;" 
d="M335 823q-43 0 -85 29q-25 18 -38 18q-11 0 -11 -13v-29h-101v39q0 38 19.5 60.5t51.5 22.5q45 0 81 -26q29 -21 42 -21q11 0 11 13v29h101v-39q0 -38 -19.5 -60.5t-51.5 -22.5zM438 750v-581q0 -84 -50.5 -134.5t-134.5 -50.5t-134.5 50.5t-50.5 134.5v581h135v-581
q0 -23 13 -36.5t37 -13.5t37 13.5t13 36.5v581h135z" />
    <glyph glyph-name="utilde" unicode="&#x169;" horiz-adv-x="463" 
d="M180 657v-29h-101v39q0 38 19.5 60.5t51.5 22.5q45 0 81 -26q29 -21 42 -21q11 0 11 13v29h101v-39q0 -38 -19.5 -60.5t-51.5 -22.5q-43 0 -85 29q-25 18 -38 18q-11 0 -11 -13zM279 550h125v-550h-125v23q-34 -36 -93 -36q-132 0 -132 175v388h125v-388q0 -23 13 -36.5
t37 -13.5t37 13.5t13 36.5v388z" />
    <glyph glyph-name="Umacron" unicode="&#x16a;" 
d="M133 900h241v-90h-241v90zM438 750v-581q0 -84 -50.5 -134.5t-134.5 -50.5t-134.5 50.5t-50.5 134.5v581h135v-581q0 -23 13 -36.5t37 -13.5t37 13.5t13 36.5v581h135z" />
    <glyph glyph-name="umacron" unicode="&#x16b;" horiz-adv-x="463" 
d="M353 700v-90h-241v90h241zM279 550h125v-550h-125v23q-34 -36 -93 -36q-132 0 -132 175v388h125v-388q0 -23 13 -36.5t37 -13.5t37 13.5t13 36.5v388z" />
    <glyph glyph-name="Ubreve" unicode="&#x16c;" 
d="M253 845q-58 0 -93.5 33t-35.5 88v14h85v-14q0 -21 12 -33.5t32 -12.5t31.5 12.5t11.5 33.5v14h85v-14q0 -55 -35 -88t-93 -33zM438 750v-581q0 -84 -50.5 -134.5t-134.5 -50.5t-134.5 50.5t-50.5 134.5v581h135v-581q0 -23 13 -36.5t37 -13.5t37 13.5t13 36.5v581h135z
" />
    <glyph glyph-name="ubreve" unicode="&#x16d;" horiz-adv-x="463" 
d="M232 645q-58 0 -93.5 33t-35.5 88v14h85v-14q0 -21 12 -33.5t32 -12.5t31.5 12.5t11.5 33.5v14h85v-14q0 -55 -35 -88t-93 -33zM279 550h125v-550h-125v23q-34 -36 -93 -36q-132 0 -132 175v388h125v-388q0 -23 13 -36.5t37 -13.5t37 13.5t13 36.5v388z" />
    <glyph glyph-name="Uring" unicode="&#x16e;" 
d="M253 768q-45 0 -77.5 31t-32.5 79q0 49 32 80t78 31t78.5 -31t32.5 -80q0 -48 -32.5 -79t-78.5 -31zM253 843q15 0 25.5 10t10.5 25q0 16 -10.5 26t-25.5 10t-25 -10t-10 -26q0 -15 10 -25t25 -10zM438 750v-581q0 -84 -50.5 -134.5t-134.5 -50.5t-134.5 50.5
t-50.5 134.5v581h135v-581q0 -23 13 -36.5t37 -13.5t37 13.5t13 36.5v581h135z" />
    <glyph glyph-name="uring" unicode="&#x16f;" horiz-adv-x="463" 
d="M232 568q-46 0 -78 31t-32 79q0 49 32 80t78 31t78.5 -31t32.5 -80q0 -48 -32.5 -79t-78.5 -31zM232 714q-15 0 -25 -10t-10 -26q0 -15 10 -25t25 -10t25.5 10t10.5 25q0 16 -10.5 26t-25.5 10zM279 550h125v-550h-125v23q-34 -36 -93 -36q-132 0 -132 175v388h125v-388
q0 -23 13 -36.5t37 -13.5t37 13.5t13 36.5v388z" />
    <glyph glyph-name="Uhungarumlaut" unicode="&#x170;" 
d="M108 808l58 172h135l-98 -172h-95zM293 808l58 172h135l-98 -172h-95zM438 750v-581q0 -84 -50.5 -134.5t-134.5 -50.5t-134.5 50.5t-50.5 134.5v581h135v-581q0 -23 13 -36.5t37 -13.5t37 13.5t13 36.5v581h135z" />
    <glyph glyph-name="uhungarumlaut" unicode="&#x171;" horiz-adv-x="463" 
d="M280 780l-98 -172h-95l58 172h135zM367 608h-95l58 172h135zM279 162v388h125v-550h-125v23q-34 -36 -93 -36q-132 0 -132 175v388h125v-388q0 -23 13 -36.5t37 -13.5t37 13.5t13 36.5z" />
    <glyph glyph-name="Uogonek" unicode="&#x172;" 
d="M303 750h135v-581q0 -77 -43 -126.5t-116 -57.5q-40 -38 -40 -82q0 -27 18.5 -44.5t51.5 -17.5h20v-90h-30q-70 0 -110 36t-40 93q0 59 49 111q-61 15 -95.5 62t-34.5 116v581h135v-581q0 -23 13 -36.5t37 -13.5t37 13.5t13 36.5v581z" />
    <glyph glyph-name="uogonek" unicode="&#x173;" horiz-adv-x="463" 
d="M366 0q-57 -46 -57 -97q0 -27 18.5 -44.5t51.5 -17.5h20v-90h-30q-70 0 -110 36t-40 93q0 66 60 121v22q-34 -36 -93 -36q-132 0 -132 175v388h125v-388q0 -23 13 -36.5t37 -13.5t37 13.5t13 36.5v388h125v-550h-38z" />
    <glyph glyph-name="Wcircumflex" unicode="&#x174;" horiz-adv-x="681" 
d="M341 906l-56 -78h-115l118 152h105l118 -152h-115zM515 750h138l-92 -750h-146l-74 393l-75 -393h-146l-92 750h138l47 -458l73 458h109l73 -458z" />
    <glyph glyph-name="wcircumflex" unicode="&#x175;" horiz-adv-x="601" 
d="M301 706l-56 -78h-115l118 152h105l118 -152h-115zM460 550h130l-97 -550h-128l-64 307l-65 -307h-128l-97 550h130l42 -336l63 336h109l63 -336z" />
    <glyph glyph-name="Ycircumflex" unicode="&#x176;" horiz-adv-x="453" 
d="M227 906l-56 -78h-115l118 152h105l118 -152h-115zM312 750h138l-155 -410v-340h-135v340l-157 410h138l87 -259z" />
    <glyph glyph-name="ycircumflex" unicode="&#x177;" horiz-adv-x="425" 
d="M213 706l-56 -78h-115l118 152h105l118 -152h-115zM290 550h136l-198 -730h-126l48 180l-151 550h136l79 -336z" />
    <glyph glyph-name="Ydieresis" unicode="&#x178;" horiz-adv-x="453" 
d="M198 980v-132h-110v132h110zM368 980v-132h-110v132h110zM312 750h138l-155 -410v-340h-135v340l-157 410h138l87 -259z" />
    <glyph glyph-name="Zacute" unicode="&#x179;" horiz-adv-x="437" 
d="M364 980l-98 -172h-95l58 172h135zM406 750v-98l-230 -517h230v-135h-375v98l230 517h-230v135h375z" />
    <glyph glyph-name="zacute" unicode="&#x17a;" horiz-adv-x="402" 
d="M347 780l-98 -172h-95l58 172h135zM376 550v-98l-195 -327h195v-125h-350v98l204 327h-204v125h350z" />
    <glyph glyph-name="Zdotaccent" unicode="&#x17b;" horiz-adv-x="437" 
d="M274 950v-132h-110v132h110zM406 750v-98l-230 -517h230v-135h-375v98l230 517h-230v135h375z" />
    <glyph glyph-name="zdotaccent" unicode="&#x17c;" horiz-adv-x="402" 
d="M257 750v-132h-110v132h110zM376 550v-98l-195 -327h195v-125h-350v98l204 327h-204v125h350z" />
    <glyph glyph-name="Zcaron" unicode="&#x17d;" horiz-adv-x="437" 
d="M271 828h-105l-118 152h115l56 -78l55 78h115zM406 750v-98l-230 -517h230v-135h-375v98l230 517h-230v135h375z" />
    <glyph glyph-name="zcaron" unicode="&#x17e;" horiz-adv-x="402" 
d="M254 628h-105l-118 152h115l56 -78l55 78h115zM376 550v-98l-195 -327h195v-125h-350v98l204 327h-204v125h350z" />
    <glyph glyph-name="longs" unicode="&#x17f;" horiz-adv-x="304" 
d="M100 0v435h-100v115h100v35q0 77 48 126t127 49h55v-125h-55q-24 0 -37 -13.5t-13 -36.5v-585h-125z" />
    <glyph glyph-name="florin" unicode="&#x192;" 
d="M29 -180v125h68q23 0 38 13.5t17 36.5l36 340h-100v115h112l14 135q8 76 57 125.5t123 49.5h69v-125h-69q-22 0 -37.5 -13.5t-17.5 -36.5l-14 -135h138v-115h-150l-36 -340q-8 -77 -57 -126t-123 -49h-68z" />
    <glyph glyph-name="Scommaaccent" unicode="&#x218;" horiz-adv-x="465" 
d="M234 -16q-84 0 -134.5 50.5t-50.5 134.5v40h135v-40q0 -23 13 -36.5t37 -13.5t37 13.5t13 36.5v77q0 23 -13 36.5t-37 13.5q-84 0 -134.5 50.5t-50.5 134.5v100q0 84 50.5 134.5t134.5 50.5t134.5 -50.5t50.5 -134.5v-40h-135v40q0 23 -13 36.5t-37 13.5t-37 -13.5
t-13 -36.5v-100q0 -23 13 -36.5t37 -13.5q84 0 134.5 -50.5t50.5 -134.5v-77q0 -84 -50.5 -134.5t-134.5 -50.5zM143 -220l30 170h130l-80 -170h-80z" />
    <glyph glyph-name="scommaaccent" unicode="&#x219;" horiz-adv-x="419" 
d="M210 -13q-80 0 -127.5 50.5t-47.5 134.5v10h125v-20q0 -23 13 -36.5t37 -13.5q23 0 36.5 14.5t13.5 36.5q0 23 -13.5 39t-36.5 16q-80 0 -127.5 47t-47.5 123q0 79 47.5 127t127.5 48t127.5 -50.5t47.5 -134.5v-10h-125v20q0 23 -13 36.5t-37 13.5q-23 0 -36.5 -14
t-13.5 -36q0 -23 13.5 -39t36.5 -16q80 0 127.5 -47t47.5 -123q0 -79 -47.5 -127.5t-127.5 -48.5zM120 -220l30 170h130l-80 -170h-80z" />
    <glyph glyph-name="uni021A" unicode="&#x21a;" horiz-adv-x="375" 
d="M120 0v615h-110v135h355v-135h-110v-615h-135zM91 -220l30 170h130l-80 -170h-80z" />
    <glyph glyph-name="uni021B" unicode="&#x21b;" horiz-adv-x="342" 
d="M264 -7q-81 0 -128 46t-47 129v267h-90v115h90v130h125v-130h105v-115h-105v-267q0 -23 13 -36.5t37 -13.5h55v-125h-55zM153 -220l30 170h130l-80 -170h-80z" />
    <glyph glyph-name="uni0237" unicode="&#x237;" horiz-adv-x="243" 
d="M-26 -183v125h35q24 0 37 13.5t13 36.5v558h125v-548q0 -84 -47.5 -134.5t-127.5 -50.5h-35z" />
    <glyph glyph-name="circumflex" unicode="&#x2c6;" horiz-adv-x="353" 
d="M6 628l118 152h105l118 -152h-115l-55 78l-56 -78h-115z" />
    <glyph glyph-name="caron" unicode="&#x2c7;" horiz-adv-x="353" 
d="M124 628l-118 152h115l56 -78l55 78h115l-118 -152h-105z" />
    <glyph glyph-name="uni02C9" unicode="&#x2c9;" horiz-adv-x="359" 
d="M59 750h241v-90h-241v90z" />
    <glyph glyph-name="breve" unicode="&#x2d8;" horiz-adv-x="334" 
d="M167 645q-58 0 -93.5 33t-35.5 88v14h85v-14q0 -21 12 -33.5t32 -12.5t31.5 12.5t11.5 33.5v14h85v-14q0 -55 -35 -88t-93 -33z" />
    <glyph glyph-name="dotaccent" unicode="&#x2d9;" horiz-adv-x="228" 
d="M59 618v132h110v-132h-110z" />
    <glyph glyph-name="ring" unicode="&#x2da;" horiz-adv-x="297" 
d="M148 559q-46 0 -78 31t-32 79q0 49 32 80t78 31t78.5 -31t32.5 -80q0 -48 -32.5 -79t-78.5 -31zM148 634q15 0 25.5 10t10.5 25q0 16 -10.5 26t-25.5 10t-25 -10t-10 -26q0 -15 10 -25t25 -10z" />
    <glyph glyph-name="ogonek" unicode="&#x2db;" horiz-adv-x="234" 
d="M179 -249q-70 0 -110 36t-40 93q0 93 120 165h27v-45q-57 -46 -57 -97q0 -27 18.5 -44.5t51.5 -17.5h20v-90h-30z" />
    <glyph glyph-name="tilde" unicode="&#x2dc;" horiz-adv-x="407" 
d="M286 653q-43 0 -85 29q-25 18 -38 18q-11 0 -11 -13v-29h-101v39q0 38 19.5 60.5t51.5 22.5q45 0 81 -26q29 -21 42 -21q11 0 11 13v29h101v-39q0 -38 -19.5 -60.5t-51.5 -22.5z" />
    <glyph glyph-name="hungarumlaut" unicode="&#x2dd;" horiz-adv-x="420" 
d="M30 608l58 172h135l-98 -172h-95zM215 608l58 172h135l-98 -172h-95z" />
    <glyph glyph-name="uni0326" unicode="&#x326;" horiz-adv-x="0" 
d="M-179 -220l30 170h130l-80 -170h-80z" />
    <glyph glyph-name="uni0394" unicode="&#x394;" horiz-adv-x="457" 
d="M15 0l142 750h146l139 -750h-427zM174 135h110l-54 364z" />
    <glyph glyph-name="uni03A9" unicode="&#x3a9;" horiz-adv-x="588" 
d="M504 135h55v-135h-235v135q24 0 37 13.5t13 36.5v366q0 36 -22 58t-58 22t-58 -22t-22 -58v-366q0 -23 13 -36.5t37 -13.5v-135h-235v135h55q-5 27 -5 50v366q0 97 59 156t156 59t156 -59t59 -156v-366q0 -23 -5 -50z" />
    <glyph glyph-name="pi" unicode="&#x3c0;" horiz-adv-x="532" 
d="M474 -7q-81 0 -128 46t-47 129v267h-85v-435h-125v435h-90v115h510v-115h-85v-267q0 -23 13 -36.5t37 -13.5h35v-125h-35z" />
    <glyph glyph-name="Wgrave" unicode="&#x1e80;" horiz-adv-x="681" 
d="M391 808h-95l-98 172h135zM515 750h138l-92 -750h-146l-74 393l-75 -393h-146l-92 750h138l47 -458l73 458h109l73 -458z" />
    <glyph glyph-name="wgrave" unicode="&#x1e81;" horiz-adv-x="601" 
d="M351 608h-95l-98 172h135zM460 550h130l-97 -550h-128l-64 307l-65 -307h-128l-97 550h130l42 -336l63 336h109l63 -336z" />
    <glyph glyph-name="Wacute" unicode="&#x1e82;" horiz-adv-x="681" 
d="M486 980l-98 -172h-95l58 172h135zM515 750h138l-92 -750h-146l-74 393l-75 -393h-146l-92 750h138l47 -458l73 458h109l73 -458z" />
    <glyph glyph-name="wacute" unicode="&#x1e83;" horiz-adv-x="601" 
d="M446 780l-98 -172h-95l58 172h135zM460 550h130l-97 -550h-128l-64 307l-65 -307h-128l-97 550h130l42 -336l63 336h109l63 -336z" />
    <glyph glyph-name="Wdieresis" unicode="&#x1e84;" horiz-adv-x="681" 
d="M312 980v-132h-110v132h110zM482 980v-132h-110v132h110zM515 750h138l-92 -750h-146l-74 393l-75 -393h-146l-92 750h138l47 -458l73 458h109l73 -458z" />
    <glyph glyph-name="wdieresis" unicode="&#x1e85;" horiz-adv-x="601" 
d="M272 780v-132h-110v132h110zM442 780v-132h-110v132h110zM460 550h130l-97 -550h-128l-64 307l-65 -307h-128l-97 550h130l42 -336l63 336h109l63 -336z" />
    <glyph glyph-name="endash" unicode="&#x2013;" horiz-adv-x="518" 
d="M59 208v135h400v-135h-400z" />
    <glyph glyph-name="emdash" unicode="&#x2014;" horiz-adv-x="618" 
d="M59 208v135h500v-135h-500z" />
    <glyph glyph-name="quoteleft" unicode="&#x2018;" horiz-adv-x="258" 
d="M64 500v144l32 106h85l-32 -106h50v-144h-135z" />
    <glyph glyph-name="quoteright" unicode="&#x2019;" horiz-adv-x="258" 
d="M77 500l32 106h-50v144h135v-144l-32 -106h-85z" />
    <glyph glyph-name="quotesinglbase" unicode="&#x201a;" horiz-adv-x="258" 
d="M77 -106l32 106h-50v144h135v-144l-32 -106h-85z" />
    <glyph glyph-name="quotedblleft" unicode="&#x201c;" horiz-adv-x="453" 
d="M64 500v144l32 106h85l-32 -106h50v-144h-135zM259 500v144l32 106h85l-32 -106h50v-144h-135z" />
    <glyph glyph-name="quotedblright" unicode="&#x201d;" horiz-adv-x="453" 
d="M77 500l32 106h-50v144h135v-144l-32 -106h-85zM272 500l32 106h-50v144h135v-144l-32 -106h-85z" />
    <glyph glyph-name="quotedblbase" unicode="&#x201e;" horiz-adv-x="453" 
d="M77 -106l32 106h-50v144h135v-144l-32 -106h-85zM272 -106l32 106h-50v144h135v-144l-32 -106h-85z" />
    <glyph glyph-name="dagger" unicode="&#x2020;" horiz-adv-x="444" 
d="M157 220v285h-120v120h120v125h130v-125h120v-120h-120v-285h-130z" />
    <glyph glyph-name="daggerdbl" unicode="&#x2021;" horiz-adv-x="492" 
d="M181 220v125h-120v120h120v40h-120v120h120v125h130v-125h120v-120h-120v-40h120v-120h-120v-125h-130z" />
    <glyph glyph-name="bullet" unicode="&#x2022;" horiz-adv-x="364" 
d="M182 150q-52 0 -88.5 37t-36.5 88t36.5 88t88.5 37q51 0 87.5 -37t36.5 -88t-36.5 -88t-87.5 -37z" />
    <glyph glyph-name="ellipsis" unicode="&#x2026;" horiz-adv-x="769" 
d="M82 0v135h135v-135h-135zM317 0v135h135v-135h-135zM552 0v135h135v-135h-135z" />
    <glyph glyph-name="perthousand" unicode="&#x2030;" horiz-adv-x="995" 
d="M161 403q-56 0 -90 34t-34 89v116q0 56 34.5 90t89.5 34t89 -34t34 -90v-116q0 -56 -34 -89.5t-89 -33.5zM126 0l332 750h105l-332 -750h-105zM161 504q22 0 22 22v116q0 23 -22 23q-23 0 -23 -23v-116q0 -22 23 -22zM528 -16q-56 0 -90 34t-34 89v116q0 55 34 89.5
t90 34.5q55 0 89 -34t34 -90v-116q0 -55 -33.5 -89t-89.5 -34zM835 -16q-56 0 -90 34t-34 89v116q0 55 34.5 89.5t89.5 34.5t89 -34t34 -90v-116q0 -55 -34 -89t-89 -34zM528 85q22 0 22 22v116q0 23 -22 23q-23 0 -23 -23v-116q0 -22 23 -22zM835 85q22 0 22 22v116
q0 23 -22 23q-23 0 -23 -23v-116q0 -22 23 -22z" />
    <glyph glyph-name="guilsinglleft" unicode="&#x2039;" horiz-adv-x="325" 
d="M275 0l-262 214v80l262 214v-152l-128 -102l128 -102v-152z" />
    <glyph glyph-name="guilsinglright" unicode="&#x203a;" horiz-adv-x="325" 
d="M49 0v152l128 102l-128 102v152l262 -214v-80z" />
    <glyph glyph-name="fraction" unicode="&#x2044;" horiz-adv-x="257" 
d="M-90 0l332 750h105l-332 -750h-105z" />
    <glyph glyph-name="uni2070" unicode="&#x2070;" horiz-adv-x="325" 
d="M163 790q50 0 80.5 -30.5t30.5 -80.5v-248q0 -50 -30.5 -80.5t-80.5 -30.5q-51 0 -81.5 30.5t-30.5 80.5v248q0 50 30.5 80.5t81.5 30.5zM163 705q-27 0 -27 -26v-137l43 158q-7 5 -16 5zM163 405q12 0 19 7.5t7 18.5v135l-43 -156q8 -5 17 -5z" />
    <glyph glyph-name="uni2074" unicode="&#x2074;" horiz-adv-x="313" 
d="M160 330v74h-147v73l158 303h74v-290h33v-86h-33v-74h-85zM102 490h58v120z" />
    <glyph glyph-name="uni2075" unicode="&#x2075;" horiz-adv-x="315" 
d="M165 320q-51 0 -81.5 30.5t-30.5 80.5v25h85v-25q0 -26 27 -26q12 0 19 7.5t7 18.5v84q0 26 -26 26q-27 0 -27 -26v-4h-85v269h204v-85h-119v-76q13 7 33 7q47 0 76 -31t29 -80v-84q0 -50 -30.5 -80.5t-80.5 -30.5z" />
    <glyph glyph-name="uni2076" unicode="&#x2076;" horiz-adv-x="320" 
d="M163 320q-51 0 -81.5 30.5t-30.5 80.5v248q0 50 30.5 80.5t81.5 30.5q50 0 80.5 -30.5t30.5 -80.5v-25h-85v25q0 11 -7 18.5t-19 7.5q-27 0 -27 -26v-60q13 7 33 7q47 0 76 -31t29 -80v-84q0 -50 -30.5 -80.5t-80.5 -30.5zM163 405q12 0 19 7.5t7 18.5v84q0 26 -26 26
q-27 0 -27 -26v-84q0 -26 27 -26z" />
    <glyph glyph-name="uni2077" unicode="&#x2077;" horiz-adv-x="251" 
d="M37 330l113 365h-137v85h220v-80l-108 -370h-88z" />
    <glyph glyph-name="uni2078" unicode="&#x2078;" horiz-adv-x="321" 
d="M161 320q-51 0 -81.5 30.5t-30.5 80.5v61q0 40 20 68q-20 28 -20 69v50q0 50 30.5 80.5t81.5 30.5q50 0 80.5 -30.5t30.5 -80.5v-50q0 -41 -20 -69q20 -28 20 -68v-61q0 -50 -30.5 -80.5t-80.5 -30.5zM161 603q26 0 26 26v50q0 11 -7 18.5t-19 7.5q-27 0 -27 -26v-50
q0 -26 27 -26zM161 405q12 0 19 7.5t7 18.5v61q0 11 -7 18.5t-19 7.5q-27 0 -27 -26v-61q0 -26 27 -26z" />
    <glyph glyph-name="uni2079" unicode="&#x2079;" horiz-adv-x="320" 
d="M158 320q-51 0 -81.5 30.5t-30.5 80.5v25h85v-25q0 -26 27 -26q12 0 19 7.5t7 18.5v60q-13 -7 -33 -7q-47 0 -76 31t-29 80v84q0 50 30.5 80.5t81.5 30.5q50 0 80.5 -30.5t30.5 -80.5v-248q0 -50 -30.5 -80.5t-80.5 -30.5zM157 569q27 0 27 26v84q0 11 -7 18.5t-19 7.5
q-27 0 -27 -26v-84q0 -26 26 -26z" />
    <glyph glyph-name="uni2080" unicode="&#x2080;" horiz-adv-x="325" 
d="M163 430q50 0 80.5 -30.5t30.5 -80.5v-248q0 -50 -30.5 -80.5t-80.5 -30.5q-51 0 -81.5 30.5t-30.5 80.5v248q0 50 30.5 80.5t81.5 30.5zM163 345q-27 0 -27 -26v-137l43 158q-7 5 -16 5zM163 45q12 0 19 7.5t7 18.5v135l-43 -156q8 -5 17 -5z" />
    <glyph glyph-name="uni2081" unicode="&#x2081;" horiz-adv-x="228" 
d="M83 -30v313h-71v85h21q23 0 36.5 12t13.5 33v7h85v-450h-85z" />
    <glyph glyph-name="uni2082" unicode="&#x2082;" horiz-adv-x="301" 
d="M37 -30v79q0 40 14 70t34.5 46.5t41 30t34.5 28.5t14 33v62q0 26 -27 26q-12 0 -19 -7.5t-7 -18.5v-25h-85v25q0 50 30.5 80.5t80.5 30.5q51 0 81.5 -30.5t30.5 -80.5v-62q0 -38 -21 -66t-45.5 -42t-45.5 -36t-21 -49v-9h133v-85h-223z" />
    <glyph glyph-name="uni2083" unicode="&#x2083;" horiz-adv-x="304" 
d="M144 -40q-51 0 -81.5 30.5t-30.5 80.5v25h85v-25q0 -26 27 -26q12 0 19 7.5t7 18.5v63q0 11 -7 18.5t-19 7.5h-49v85h49q26 0 26 26v48q0 11 -7 18.5t-19 7.5q-27 0 -27 -26v-25h-85v25q0 50 30.5 80.5t81.5 30.5q50 0 80.5 -30.5t30.5 -80.5v-48q0 -41 -20 -69
q20 -28 20 -68v-63q0 -50 -30.5 -80.5t-80.5 -30.5z" />
    <glyph glyph-name="uni2084" unicode="&#x2084;" horiz-adv-x="313" 
d="M160 -30v74h-147v73l158 303h74v-290h33v-86h-33v-74h-85zM102 130h58v120z" />
    <glyph glyph-name="uni2085" unicode="&#x2085;" horiz-adv-x="315" 
d="M165 -40q-51 0 -81.5 30.5t-30.5 80.5v25h85v-25q0 -26 27 -26q12 0 19 7.5t7 18.5v84q0 26 -26 26q-27 0 -27 -26v-4h-85v269h204v-85h-119v-76q13 7 33 7q47 0 76 -31t29 -80v-84q0 -50 -30.5 -80.5t-80.5 -30.5z" />
    <glyph glyph-name="uni2086" unicode="&#x2086;" horiz-adv-x="320" 
d="M163 -40q-51 0 -81.5 30.5t-30.5 80.5v248q0 50 30.5 80.5t81.5 30.5q50 0 80.5 -30.5t30.5 -80.5v-25h-85v25q0 11 -7 18.5t-19 7.5q-27 0 -27 -26v-60q13 7 33 7q47 0 76 -31t29 -80v-84q0 -50 -30.5 -80.5t-80.5 -30.5zM163 45q12 0 19 7.5t7 18.5v84q0 26 -26 26
q-27 0 -27 -26v-84q0 -26 27 -26z" />
    <glyph glyph-name="uni2087" unicode="&#x2087;" horiz-adv-x="251" 
d="M37 -30l113 365h-137v85h220v-80l-108 -370h-88z" />
    <glyph glyph-name="uni2088" unicode="&#x2088;" horiz-adv-x="321" 
d="M161 -40q-51 0 -81.5 30.5t-30.5 80.5v61q0 40 20 68q-20 28 -20 69v50q0 50 30.5 80.5t81.5 30.5q50 0 80.5 -30.5t30.5 -80.5v-50q0 -41 -20 -69q20 -28 20 -68v-61q0 -50 -30.5 -80.5t-80.5 -30.5zM161 243q26 0 26 26v50q0 11 -7 18.5t-19 7.5q-27 0 -27 -26v-50
q0 -26 27 -26zM161 45q12 0 19 7.5t7 18.5v61q0 11 -7 18.5t-19 7.5q-27 0 -27 -26v-61q0 -26 27 -26z" />
    <glyph glyph-name="uni2089" unicode="&#x2089;" horiz-adv-x="320" 
d="M158 -40q-51 0 -81.5 30.5t-30.5 80.5v25h85v-25q0 -26 27 -26q12 0 19 7.5t7 18.5v60q-13 -7 -33 -7q-47 0 -76 31t-29 80v84q0 50 30.5 80.5t81.5 30.5q50 0 80.5 -30.5t30.5 -80.5v-248q0 -50 -30.5 -80.5t-80.5 -30.5zM157 209q27 0 27 26v84q0 11 -7 18.5t-19 7.5
q-27 0 -27 -26v-84q0 -26 26 -26z" />
    <glyph glyph-name="franc" unicode="&#x20a3;" horiz-adv-x="464" 
d="M419 615h-175v-240h148v-135h-148v-55h56v-115h-56v-70h-135v70h-64v115h64v565h310v-135z" />
    <glyph glyph-name="lira" unicode="&#x20a4;" horiz-adv-x="537" 
d="M499 541h-135v40q0 23 -13 36.5t-37 13.5t-37 -13.5t-13 -36.5v-147h100v-115h-100v-39h100v-115h-100v-50h185v-115h-385v115h65v50h-65v115h65v39h-65v115h65v147q0 84 50.5 134.5t134.5 50.5t134.5 -50.5t50.5 -134.5v-40z" />
    <glyph glyph-name="peseta" unicode="&#x20a7;" horiz-adv-x="555" 
d="M521 572v-115h-46q-3 -81 -53 -129t-132 -48h-50v-280h-135v457h-54v115h54v178h185q83 0 133 -48.5t52 -129.5h46zM240 615v-43h100q-5 43 -50 43h-50zM290 415q45 0 50 42h-100v-42h50z" />
    <glyph glyph-name="Euro" unicode="&#x20ac;" horiz-adv-x="538" 
d="M485 541h-135v40q0 23 -13 36.5t-37 13.5t-37 -13.5t-13 -36.5v-70h100v-115h-100v-42h100v-115h-100v-70q0 -23 13 -36.5t37 -13.5t37 13.5t13 36.5v40h135v-40q0 -84 -50.5 -134.5t-134.5 -50.5t-134.5 50.5t-50.5 134.5v70h-65v115h65v42h-65v115h65v70
q0 84 50.5 134.5t134.5 50.5t134.5 -50.5t50.5 -134.5v-40z" />
    <glyph glyph-name="uni2113" unicode="&#x2113;" horiz-adv-x="595" 
d="M335 -13q-112 0 -171 121q-74 -33 -120 -45l-22 94q58 15 114 41q-12 48 -12 114q0 169 72.5 285.5t179.5 116.5q72 0 122 -56t50 -141q0 -204 -290 -365q29 -74 86 -74q37 0 65.5 29t35.5 73l95 -10q-13 -80 -72.5 -131.5t-132.5 -51.5zM244 258q195 122 195 258
q0 43 -19 73t-49 30q-51 0 -90.5 -78t-43.5 -189q-2 -47 7 -94z" />
    <glyph glyph-name="trademark" unicode="&#x2122;" horiz-adv-x="691" 
d="M105 300v365h-65v85h215v-85h-65v-365h-85zM291 300v450h74l82 -307l81 307h75v-450h-78v179l-51 -179h-54l-51 179v-179h-78z" />
    <glyph glyph-name="estimated" unicode="&#x212e;" horiz-adv-x="688" 
d="M352 -16q-134 0 -220.5 83.5t-86.5 204.5q0 122 87 206.5t218 84.5t218.5 -84.5t87.5 -205.5v-7h-490q-3 0 -3 -5v-156q0 -8 8 -18q73 -85 181 -85q62 0 105.5 23.5t84.5 71.5h47q-47 -56 -101 -84.5t-136 -28.5zM166 280h369q2 0 2 7v157q0 10 -7 19q-43 43 -81 63
t-99 20q-108 0 -178 -86q-9 -10 -9 -19v-154q0 -7 3 -7z" />
    <glyph glyph-name="oneeighth" unicode="&#x215b;" horiz-adv-x="806" 
d="M83 300v313h-71v85h21q23 0 36.5 12t13.5 33v7h85v-450h-85zM138 0l332 750h105l-332 -750h-105zM646 -10q-51 0 -81.5 30.5t-30.5 80.5v61q0 40 20 68q-20 28 -20 69v50q0 50 30.5 80.5t81.5 30.5q50 0 80.5 -30.5t30.5 -80.5v-50q0 -41 -20 -69q20 -28 20 -68v-61
q0 -50 -30.5 -80.5t-80.5 -30.5zM646 273q26 0 26 26v50q0 11 -7 18.5t-19 7.5q-27 0 -27 -26v-50q0 -26 27 -26zM646 75q12 0 19 7.5t7 18.5v61q0 11 -7 18.5t-19 7.5q-27 0 -27 -26v-61q0 -26 27 -26z" />
    <glyph glyph-name="threeeighths" unicode="&#x215c;" horiz-adv-x="882" 
d="M144 290q-51 0 -81.5 30.5t-30.5 80.5v25h85v-25q0 -26 27 -26q12 0 19 7.5t7 18.5v63q0 11 -7 18.5t-19 7.5h-49v85h49q26 0 26 26v48q0 11 -7 18.5t-19 7.5q-27 0 -27 -26v-25h-85v25q0 50 30.5 80.5t81.5 30.5q50 0 80.5 -30.5t30.5 -80.5v-48q0 -41 -20 -69
q20 -28 20 -68v-63q0 -50 -30.5 -80.5t-80.5 -30.5zM214 0l332 750h105l-332 -750h-105zM722 -10q-51 0 -81.5 30.5t-30.5 80.5v61q0 40 20 68q-20 28 -20 69v50q0 50 30.5 80.5t81.5 30.5q50 0 80.5 -30.5t30.5 -80.5v-50q0 -41 -20 -69q20 -28 20 -68v-61
q0 -50 -30.5 -80.5t-80.5 -30.5zM722 273q26 0 26 26v50q0 11 -7 18.5t-19 7.5q-27 0 -27 -26v-50q0 -26 27 -26zM722 75q12 0 19 7.5t7 18.5v61q0 11 -7 18.5t-19 7.5q-27 0 -27 -26v-61q0 -26 27 -26z" />
    <glyph glyph-name="fiveeighths" unicode="&#x215d;" horiz-adv-x="893" 
d="M165 290q-51 0 -81.5 30.5t-30.5 80.5v25h85v-25q0 -26 27 -26q12 0 19 7.5t7 18.5v84q0 26 -26 26q-27 0 -27 -26v-4h-85v269h204v-85h-119v-76q13 7 33 7q47 0 76 -31t29 -80v-84q0 -50 -30.5 -80.5t-80.5 -30.5zM225 0l332 750h105l-332 -750h-105zM733 -10
q-51 0 -81.5 30.5t-30.5 80.5v61q0 40 20 68q-20 28 -20 69v50q0 50 30.5 80.5t81.5 30.5q50 0 80.5 -30.5t30.5 -80.5v-50q0 -41 -20 -69q20 -28 20 -68v-61q0 -50 -30.5 -80.5t-80.5 -30.5zM733 273q26 0 26 26v50q0 11 -7 18.5t-19 7.5q-27 0 -27 -26v-50q0 -26 27 -26z
M733 75q12 0 19 7.5t7 18.5v61q0 11 -7 18.5t-19 7.5q-27 0 -27 -26v-61q0 -26 27 -26z" />
    <glyph glyph-name="seveneighths" unicode="&#x215e;" horiz-adv-x="829" 
d="M37 300l113 365h-137v85h220v-80l-108 -370h-88zM161 0l332 750h105l-332 -750h-105zM669 -10q-51 0 -81.5 30.5t-30.5 80.5v61q0 40 20 68q-20 28 -20 69v50q0 50 30.5 80.5t81.5 30.5q50 0 80.5 -30.5t30.5 -80.5v-50q0 -41 -20 -69q20 -28 20 -68v-61
q0 -50 -30.5 -80.5t-80.5 -30.5zM669 273q26 0 26 26v50q0 11 -7 18.5t-19 7.5q-27 0 -27 -26v-50q0 -26 27 -26zM669 75q12 0 19 7.5t7 18.5v61q0 11 -7 18.5t-19 7.5q-27 0 -27 -26v-61q0 -26 27 -26z" />
    <glyph glyph-name="arrowleft" unicode="&#x2190;" horiz-adv-x="545" 
d="M493 367v-145h-267v-130l-203 203l203 204v-132h267z" />
    <glyph glyph-name="arrowup" unicode="&#x2191;" horiz-adv-x="447" 
d="M427 327h-130v-267h-145v267h-132l204 203z" />
    <glyph glyph-name="arrowright" unicode="&#x2192;" horiz-adv-x="545" 
d="M522 295l-203 -203v130h-267v145h267v132z" />
    <glyph glyph-name="arrowdown" unicode="&#x2193;" horiz-adv-x="447" 
d="M297 263h130l-203 -203l-204 203h132v267h145v-267z" />
    <glyph glyph-name="arrowboth" unicode="&#x2194;" horiz-adv-x="649" 
d="M226 92l-203 203l203 204v-132h197v132l203 -204l-203 -203v130h-197v-130z" />
    <glyph glyph-name="arrowupdn" unicode="&#x2195;" horiz-adv-x="461" 
d="M230 0l-203 203h130v197h-130l203 203l204 -203h-132v-197h132z" />
    <glyph glyph-name="uni2196" unicode="&#x2196;" horiz-adv-x="482" 
d="M458 179l-102 -102l-189 189l-92 -92v287l288 1l-94 -94z" />
    <glyph glyph-name="uni2197" unicode="&#x2197;" horiz-adv-x="482" 
d="M407 461v-287l-92 92l-189 -189l-102 102l189 189l-94 94z" />
    <glyph glyph-name="uni2198" unicode="&#x2198;" horiz-adv-x="482" 
d="M315 273l92 92v-287l-288 -1l94 94l-189 189l102 102z" />
    <glyph glyph-name="uni2199" unicode="&#x2199;" horiz-adv-x="482" 
d="M458 360l-189 -189l94 -94l-288 1v287l92 -92l189 189z" />
    <glyph glyph-name="partialdiff" unicode="&#x2202;" horiz-adv-x="481" 
d="M272 750q56 0 90.5 -37t34.5 -98v-615h-125v23q-34 -36 -93 -36q-132 0 -132 175v126q0 175 132 175q59 0 93 -36v188q0 23 -14 36.5t-36 13.5h-28v85h78zM222 112q24 0 37 13.5t13 36.5v126q0 23 -13 36.5t-37 13.5t-37 -13.5t-13 -36.5v-126q0 -23 13 -36.5t37 -13.5z
" />
    <glyph glyph-name="emptyset" unicode="&#x2205;" horiz-adv-x="689" 
d="M553 520q89 -84 89 -226q0 -136 -85 -221.5t-213 -85.5q-47 0 -94 14l-31 -54h-135l64 109q-104 88 -104 238q0 138 85.5 221.5t214.5 83.5q59 0 110 -18l33 56h135zM175 294q0 -71 41 -120l170 290q-22 5 -42 5q-73 0 -121 -47.5t-48 -127.5zM344 117q72 0 120 49.5
t48 127.5q0 60 -29 105l-164 -280q16 -2 25 -2z" />
    <glyph glyph-name="product" unicode="&#x220f;" horiz-adv-x="644" 
d="M132 -120v735h-110v135h600v-135h-110v-735h-135v735h-110v-735h-135z" />
    <glyph glyph-name="summation" unicode="&#x2211;" horiz-adv-x="457" 
d="M43 -120v98l137 337l-137 337v98h375v-135h-230l121 -300l-125 -300h234v-135h-375z" />
    <glyph glyph-name="minus" unicode="&#x2212;" horiz-adv-x="576" 
d="M88 208v135h400v-135h-400z" />
    <glyph glyph-name="uni2215" unicode="&#x2215;" horiz-adv-x="439" 
d="M18 -50l268 830h135l-268 -830h-135z" />
    <glyph glyph-name="uni2219" unicode="&#x2219;" horiz-adv-x="418" 
d="M231 125q-62 0 -106.5 44.5t-44.5 106.5t44.5 106.5t106.5 44.5t106 -44.5t44 -106.5t-44 -106.5t-106 -44.5z" />
    <glyph glyph-name="radical" unicode="&#x221a;" horiz-adv-x="577" 
d="M136 0l-109 421h132l50 -217l120 546h225v-120h-118l-154 -630h-146z" />
    <glyph glyph-name="infinity" unicode="&#x221e;" horiz-adv-x="718" 
d="M503 449q67 0 111 -43t44 -112t-44 -112t-111 -43h-12q-74 0 -132 79q-58 -79 -132 -79h-12q-67 0 -111 43t-44 112t44 112t111 43h12q74 0 132 -79q58 79 132 79h12zM242 239q33 0 71 55q-38 55 -71 55h-12q-22 0 -36 -15t-14 -40t14 -40t36 -15h12zM488 239q22 0 36 15
t14 40t-14 40t-36 15h-12q-33 0 -71 -55q38 -55 71 -55h12z" />
    <glyph glyph-name="integral" unicode="&#x222b;" horiz-adv-x="375" 
d="M20 -180v125h55q24 0 37 13.5t13 36.5v590q0 77 48 126t127 49h55v-125h-55q-24 0 -37 -13.5t-13 -36.5v-590q0 -77 -48 -126t-127 -49h-55z" />
    <glyph glyph-name="approxequal" unicode="&#x2248;" horiz-adv-x="599" 
d="M61 319v31q0 70 37 108t110 38q41 0 71 -13t50.5 -25.5t38.5 -12.5q22 0 29.5 9.5t7.5 25.5v24h130v-33q0 -68 -34.5 -107t-95.5 -39q-48 0 -98 30.5t-73 30.5q-43 0 -43 -44v-23h-130zM61 39v31q0 70 37 108t110 38q41 0 71 -13t50.5 -25.5t38.5 -12.5q22 0 29.5 9.5
t7.5 25.5v24h130v-33q0 -68 -34.5 -107t-95.5 -39q-48 0 -98 30.5t-73 30.5q-43 0 -43 -44v-23h-130z" />
    <glyph glyph-name="notequal" unicode="&#x2260;" horiz-adv-x="486" 
d="M419 308h-130l-23 -65h153v-135h-202l-38 -108h-80l38 108h-68v135h117l23 65h-140v135h188l38 107h80l-38 -107h82v-135z" />
    <glyph glyph-name="lessequal" unicode="&#x2264;" horiz-adv-x="453" 
d="M386 155l-342 230v95l342 226v-145l-193 -128l193 -131v-147zM44 0v125h342v-125h-342z" />
    <glyph glyph-name="greaterequal" unicode="&#x2265;" horiz-adv-x="455" 
d="M67 155v147l193 131l-193 128v145l342 -226v-95zM67 0v125h342v-125h-342z" />
    <glyph glyph-name="lozenge" unicode="&#x25ca;" horiz-adv-x="478" 
d="M167 0l-137 375l137 375h146l135 -375l-135 -375h-146zM240 174l72 201l-72 201l-74 -201z" />
    <glyph glyph-name="uniF8FF" unicode="&#xf8ff;" horiz-adv-x="711" 
d="M357 277v206h23v-131l73 77h28l-54 -58l58 -94h-28l-46 76l-31 -32v-44h-23zM134 277q-45 0 -45 42v90h-35v20h35v37h23v-37h39v-20h-39v-90q0 -20 24 -20h15v-22h-17zM248 273q-34 0 -55 22t-21 59q0 35 21 57t55 22q35 0 56 -22t21 -58t-21 -58t-56 -22zM573 273
q-35 0 -56 22t-21 59q0 35 21 57t55 22q35 0 56 -22t21 -58t-21 -58t-55 -22zM248 293q25 0 39.5 16.5t14.5 44.5q0 26 -14.5 42.5t-39.5 16.5q-24 0 -39 -16.5t-15 -42.5q0 -28 15 -44.5t39 -16.5zM573 293q25 0 39 16.5t14 44.5q0 27 -14.5 43t-38.5 16q-25 0 -39.5 -16.5
t-14.5 -42.5q0 -28 14.5 -44.5t39.5 -16.5zM134 53q-45 0 -45 42v90h-35v20h35v37h23v-37h39v-20h-39v-90q0 -20 24 -20h15v-22h-17zM340 5v200h23v-22q19 26 52 26q31 0 50 -22t19 -58t-19 -58t-50 -22q-34 0 -52 26v-70h-23zM584 49q-35 0 -56 22t-21 58t20.5 58t54.5 22
q33 0 52.5 -21t19.5 -56q0 -9 -1 -13h-123q3 -23 17.5 -36.5t36.5 -13.5q16 0 28.5 8t15.5 20h24q-4 -22 -22.5 -35t-45.5 -13zM176 0v22h17q23 0 30 16l6 14l-63 153h26l51 -126l46 126h26l-66 -166q-9 -22 -21 -30.5t-35 -8.5h-17zM411 69q22 0 36 16t14 44t-14 44t-36 16
q-21 0 -34.5 -16t-13.5 -43v-2q0 -27 13.5 -43t34.5 -16zM530 139h102q0 23 -13.5 36.5t-36.5 13.5q-47 0 -52 -50z" />
    <glyph glyph-name="G.ss03" horiz-adv-x="484" 
d="M247 -16q-84 0 -134.5 50.5t-50.5 134.5v412q0 84 50.5 134.5t134.5 50.5t134.5 -50.5t50.5 -134.5v-40h-135v40q0 23 -13 36.5t-37 13.5t-37 -13.5t-13 -36.5v-412q0 -23 13 -36.5t37 -13.5t37 13.5t13 36.5v171h-63v135h198v-306q0 -84 -50.5 -134.5t-134.5 -50.5z" />
    <glyph glyph-name="Gbreve.ss03" horiz-adv-x="484" 
d="M247 845q-58 0 -93.5 33t-35.5 88v14h85v-14q0 -21 12 -33.5t32 -12.5t31.5 12.5t11.5 33.5v14h85v-14q0 -55 -35 -88t-93 -33zM247 -16q-84 0 -134.5 50.5t-50.5 134.5v412q0 84 50.5 134.5t134.5 50.5t134.5 -50.5t50.5 -134.5v-40h-135v40q0 23 -13 36.5t-37 13.5
t-37 -13.5t-13 -36.5v-412q0 -23 13 -36.5t37 -13.5t37 13.5t13 36.5v171h-63v135h198v-306q0 -84 -50.5 -134.5t-134.5 -50.5z" />
    <glyph glyph-name="Gcircumflex.ss03" horiz-adv-x="484" 
d="M76 828l118 152h105l118 -152h-115l-55 78l-56 -78h-115zM247 -16q-84 0 -134.5 50.5t-50.5 134.5v412q0 84 50.5 134.5t134.5 50.5t134.5 -50.5t50.5 -134.5v-40h-135v40q0 23 -13 36.5t-37 13.5t-37 -13.5t-13 -36.5v-412q0 -23 13 -36.5t37 -13.5t37 13.5t13 36.5v171
h-63v135h198v-306q0 -84 -50.5 -134.5t-134.5 -50.5z" />
    <glyph glyph-name="Gcommaaccent.ss03" horiz-adv-x="484" 
d="M247 -16q-84 0 -134.5 50.5t-50.5 134.5v412q0 84 50.5 134.5t134.5 50.5t134.5 -50.5t50.5 -134.5v-40h-135v40q0 23 -13 36.5t-37 13.5t-37 -13.5t-13 -36.5v-412q0 -23 13 -36.5t37 -13.5t37 13.5t13 36.5v171h-63v135h198v-306q0 -84 -50.5 -134.5t-134.5 -50.5z
M157 -220l30 170h130l-80 -170h-80z" />
    <glyph glyph-name="Gdotaccent.ss03" horiz-adv-x="484" 
d="M192 818v132h110v-132h-110zM247 -16q-84 0 -134.5 50.5t-50.5 134.5v412q0 84 50.5 134.5t134.5 50.5t134.5 -50.5t50.5 -134.5v-40h-135v40q0 23 -13 36.5t-37 13.5t-37 -13.5t-13 -36.5v-412q0 -23 13 -36.5t37 -13.5t37 13.5t13 36.5v171h-63v135h198v-306
q0 -84 -50.5 -134.5t-134.5 -50.5z" />
    <glyph glyph-name="IJ.ss04" horiz-adv-x="736" 
d="M208 0h-135v750h135v-750zM484 -7q-84 0 -134.5 50.5t-50.5 134.5v10h135v-10q0 -23 13 -36.5t37 -13.5t37 13.5t13 36.5v572h135v-572q0 -84 -50.5 -134.5t-134.5 -50.5z" />
    <glyph glyph-name="J.ss04" horiz-adv-x="455" 
d="M203 -7q-84 0 -134.5 50.5t-50.5 134.5v10h135v-10q0 -23 13 -36.5t37 -13.5t37 13.5t13 36.5v572h135v-572q0 -84 -50.5 -134.5t-134.5 -50.5z" />
    <glyph glyph-name="Jcircumflex.ss04" horiz-adv-x="455" 
d="M148 828l118 152h105l118 -152h-115l-55 78l-56 -78h-115zM203 -7q-84 0 -134.5 50.5t-50.5 134.5v10h135v-10q0 -23 13 -36.5t37 -13.5t37 13.5t13 36.5v572h135v-572q0 -84 -50.5 -134.5t-134.5 -50.5z" />
    <glyph glyph-name="a.ss01" horiz-adv-x="458" 
d="M274 550h125v-550h-125v23q-34 -36 -93 -36q-132 0 -132 175v226q0 175 132 175q59 0 93 -36v23zM224 112q24 0 37 13.5t13 36.5v226q0 23 -13 36.5t-37 13.5t-37 -13.5t-13 -36.5v-226q0 -23 13 -36.5t37 -13.5z" />
    <glyph glyph-name="aacute.ss01" horiz-adv-x="458" 
d="M374 780l-98 -172h-95l58 172h135zM274 550h125v-550h-125v23q-34 -36 -93 -36q-132 0 -132 175v226q0 175 132 175q59 0 93 -36v23zM224 112q24 0 37 13.5t13 36.5v226q0 23 -13 36.5t-37 13.5t-37 -13.5t-13 -36.5v-226q0 -23 13 -36.5t37 -13.5z" />
    <glyph glyph-name="abreve.ss01" horiz-adv-x="458" 
d="M229 645q-58 0 -93.5 33t-35.5 88v14h85v-14q0 -21 12 -33.5t32 -12.5t31.5 12.5t11.5 33.5v14h85v-14q0 -55 -35 -88t-93 -33zM274 550h125v-550h-125v23q-34 -36 -93 -36q-132 0 -132 175v226q0 175 132 175q59 0 93 -36v23zM224 112q24 0 37 13.5t13 36.5v226
q0 23 -13 36.5t-37 13.5t-37 -13.5t-13 -36.5v-226q0 -23 13 -36.5t37 -13.5z" />
    <glyph glyph-name="acircumflex.ss01" horiz-adv-x="458" 
d="M229 706l-56 -78h-115l118 152h105l118 -152h-115zM274 527v23h125v-550h-125v23q-34 -36 -93 -36q-132 0 -132 175v226q0 175 132 175q59 0 93 -36zM224 112q24 0 37 13.5t13 36.5v226q0 23 -13 36.5t-37 13.5t-37 -13.5t-13 -36.5v-226q0 -23 13 -36.5t37 -13.5z" />
    <glyph glyph-name="adieresis.ss01" horiz-adv-x="458" 
d="M200 780v-132h-110v132h110zM370 780v-132h-110v132h110zM274 550h125v-550h-125v23q-34 -36 -93 -36q-132 0 -132 175v226q0 175 132 175q59 0 93 -36v23zM224 112q24 0 37 13.5t13 36.5v226q0 23 -13 36.5t-37 13.5t-37 -13.5t-13 -36.5v-226q0 -23 13 -36.5t37 -13.5z
" />
    <glyph glyph-name="agrave.ss01" horiz-adv-x="458" 
d="M279 608h-95l-98 172h135zM274 550h125v-550h-125v23q-34 -36 -93 -36q-132 0 -132 175v226q0 175 132 175q59 0 93 -36v23zM224 112q24 0 37 13.5t13 36.5v226q0 23 -13 36.5t-37 13.5t-37 -13.5t-13 -36.5v-226q0 -23 13 -36.5t37 -13.5z" />
    <glyph glyph-name="amacron.ss01" horiz-adv-x="458" 
d="M350 700v-90h-241v90h241zM274 550h125v-550h-125v23q-34 -36 -93 -36q-132 0 -132 175v226q0 175 132 175q59 0 93 -36v23zM224 112q24 0 37 13.5t13 36.5v226q0 23 -13 36.5t-37 13.5t-37 -13.5t-13 -36.5v-226q0 -23 13 -36.5t37 -13.5z" />
    <glyph glyph-name="aogonek.ss01" horiz-adv-x="440" 
d="M361 0q-57 -46 -57 -97q0 -27 18.5 -44.5t51.5 -17.5h20v-90h-30q-70 0 -110 36t-40 93q0 66 60 121v22q-34 -36 -93 -36q-132 0 -132 175v226q0 175 132 175q59 0 93 -36v23h125v-550h-38zM224 112q24 0 37 13.5t13 36.5v226q0 23 -13 36.5t-37 13.5t-37 -13.5
t-13 -36.5v-226q0 -23 13 -36.5t37 -13.5z" />
    <glyph glyph-name="aring.ss01" horiz-adv-x="458" 
d="M229 568q-45 0 -77.5 31t-32.5 79q0 49 32 80t78 31t78.5 -31t32.5 -80q0 -48 -32.5 -79t-78.5 -31zM229 714q-15 0 -25 -10t-10 -26q0 -15 10 -25t25 -10t25.5 10t10.5 25q0 16 -10.5 26t-25.5 10zM274 550h125v-550h-125v23q-34 -36 -93 -36q-132 0 -132 175v226
q0 175 132 175q59 0 93 -36v23zM224 112q24 0 37 13.5t13 36.5v226q0 23 -13 36.5t-37 13.5t-37 -13.5t-13 -36.5v-226q0 -23 13 -36.5t37 -13.5z" />
    <glyph glyph-name="atilde.ss01" horiz-adv-x="458" 
d="M177 657v-29h-101v39q0 38 19.5 60.5t51.5 22.5q45 0 81 -26q29 -21 42 -21q11 0 11 13v29h101v-39q0 -38 -19.5 -60.5t-51.5 -22.5q-43 0 -85 29q-25 18 -38 18q-11 0 -11 -13zM274 550h125v-550h-125v23q-34 -36 -93 -36q-132 0 -132 175v226q0 175 132 175
q59 0 93 -36v23zM224 112q24 0 37 13.5t13 36.5v226q0 23 -13 36.5t-37 13.5t-37 -13.5t-13 -36.5v-226q0 -23 13 -36.5t37 -13.5z" />
    <glyph glyph-name="y.ss02" horiz-adv-x="452" 
d="M268 550h125v-550q0 -83 -48 -133t-127 -50q-80 0 -127.5 50.5t-47.5 134.5v22h125v-32q0 -23 13 -36.5t37 -13.5t37 13.5t13 36.5v101q-34 -36 -93 -36q-132 0 -132 175v318h125v-318q0 -23 13 -36.5t37 -13.5t37 13.5t13 36.5v318z" />
    <glyph glyph-name="yacute.ss02" horiz-adv-x="452" 
d="M363 780l-98 -172h-95l58 172h135zM268 550h125v-550q0 -83 -48 -133t-127 -50q-80 0 -127.5 50.5t-47.5 134.5v22h125v-32q0 -23 13 -36.5t37 -13.5t37 13.5t13 36.5v101q-34 -36 -93 -36q-132 0 -132 175v318h125v-318q0 -23 13 -36.5t37 -13.5t37 13.5t13 36.5v318z
" />
    <glyph glyph-name="ycircumflex.ss02" horiz-adv-x="452" 
d="M218 706l-56 -78h-115l118 152h105l118 -152h-115zM268 550h125v-550q0 -83 -48 -133t-127 -50q-80 0 -127.5 50.5t-47.5 134.5v22h125v-32q0 -23 13 -36.5t37 -13.5t37 13.5t13 36.5v101q-34 -36 -93 -36q-132 0 -132 175v318h125v-318q0 -23 13 -36.5t37 -13.5t37 13.5
t13 36.5v318z" />
    <glyph glyph-name="ydieresis.ss02" horiz-adv-x="452" 
d="M189 780v-132h-110v132h110zM359 780v-132h-110v132h110zM268 550h125v-550q0 -83 -48 -133t-127 -50q-80 0 -127.5 50.5t-47.5 134.5v22h125v-32q0 -23 13 -36.5t37 -13.5t37 13.5t13 36.5v101q-34 -36 -93 -36q-132 0 -132 175v318h125v-318q0 -23 13 -36.5t37 -13.5
t37 13.5t13 36.5v318z" />
    <glyph glyph-name="longs_t" horiz-adv-x="646" 
d="M100 0v435h-100v115h100v35q0 77 48 126t127 49h55v-125h-55q-24 0 -37 -13.5t-13 -36.5v-585h-125zM568 -7q-81 0 -128 46t-47 129v267h-90v115h90v130h125v-130h105v-115h-105v-267q0 -23 13 -36.5t37 -13.5h55v-125h-55z" />
    <glyph glyph-name="zero.tf" horiz-adv-x="480" 
d="M240 766q83 0 132.5 -50.5t49.5 -134.5v-412q0 -84 -49.5 -134.5t-132.5 -50.5t-133 51t-50 134v412q0 83 50 134t133 51zM240 631q-23 0 -36 -13.5t-13 -36.5v-249l78 291q-13 8 -29 8zM240 119q22 0 35 13.5t13 36.5v245l-77 -287q13 -8 29 -8z" />
    <glyph glyph-name="one.tf" horiz-adv-x="480" 
d="M26 0v135h147v394h-131v135h33q46 0 72 20t26 55v11h135v-615h146v-135h-428z" />
    <glyph glyph-name="two.tf" horiz-adv-x="480" 
d="M431 481q0 -44 -18 -79.5t-45 -58t-59 -46l-59 -42t-45 -46t-18 -59.5v-15h244v-135h-387v125q0 56 18.5 101.5t46.5 72t61 51t61 41t46.5 40t18.5 50.5v100q0 23 -16 36.5t-42 13.5t-42.5 -14t-16.5 -36v-40h-135v40q0 83 53.5 134t140.5 51t140 -51t53 -134v-100z" />
    <glyph glyph-name="three.tf" horiz-adv-x="480" 
d="M419 581v-77q0 -70 -39 -117q39 -48 39 -118v-100q0 -83 -52.5 -134t-139.5 -51t-139.5 50.5t-52.5 134.5v40h135v-40q0 -23 15 -36.5t42 -13.5q26 0 41.5 13.5t15.5 36.5v100q0 23 -15.5 36.5t-41.5 13.5h-80v135h80q26 0 41.5 13.5t15.5 36.5v77q0 23 -15.5 36.5
t-41.5 13.5q-27 0 -42 -13.5t-15 -36.5v-40h-135v40q0 84 52.5 134.5t139.5 50.5t139.5 -51t52.5 -134z" />
    <glyph glyph-name="four.tf" horiz-adv-x="480" 
d="M396 263h57v-135h-57v-128h-135v128h-247v116l264 506h118v-487zM261 263v218l-106 -218h106z" />
    <glyph glyph-name="five.tf" horiz-adv-x="480" 
d="M261 494q79 0 128.5 -51t49.5 -134v-140q0 -83 -51.5 -134t-136.5 -51t-136 50.5t-51 134.5v40h135v-40q0 -23 14 -36.5t38 -13.5q25 0 39 13.5t14 36.5v140q0 23 -14 36.5t-39 13.5q-24 0 -38 -13.5t-14 -36.5v-7h-135v448h345v-135h-210v-137q26 16 62 16z" />
    <glyph glyph-name="six.tf" horiz-adv-x="480" 
d="M430 541h-135v40q0 23 -13.5 36.5t-37.5 13.5q-23 0 -36.5 -13.5t-13.5 -36.5v-102q24 15 60 15q78 0 127 -51t49 -134v-140q0 -83 -51 -134t-135 -51t-134.5 51t-50.5 134v412q0 83 50.5 134t134.5 51t135 -51t51 -134v-40zM244 359q-23 0 -36.5 -13.5t-13.5 -36.5v-140
q0 -23 13.5 -36.5t36.5 -13.5q24 0 37.5 13.5t13.5 36.5v140q0 23 -13.5 36.5t-37.5 13.5z" />
    <glyph glyph-name="seven.tf" horiz-adv-x="480" 
d="M27 750h417v-126l-214 -624h-141l220 615h-282v135z" />
    <glyph glyph-name="eight.tf" horiz-adv-x="480" 
d="M425 581v-80q0 -70 -36 -117q36 -49 36 -118v-97q0 -84 -50.5 -134.5t-134.5 -50.5t-134.5 50.5t-50.5 134.5v97q0 69 36 118q-36 47 -36 117v80q0 84 50.5 134.5t134.5 50.5t134.5 -50.5t50.5 -134.5zM290 501v80q0 23 -13 36.5t-37 13.5t-37 -13.5t-13 -36.5v-80
q0 -23 13 -36.5t37 -13.5t37 13.5t13 36.5zM290 169v97q0 23 -13 36.5t-37 13.5t-37 -13.5t-13 -36.5v-97q0 -23 13 -36.5t37 -13.5t37 13.5t13 36.5z" />
    <glyph glyph-name="nine.tf" horiz-adv-x="480" 
d="M236 766q84 0 134.5 -50.5t50.5 -134.5v-412q0 -84 -50.5 -134.5t-134.5 -50.5t-134.5 50.5t-50.5 134.5v40h135v-40q0 -23 13 -36.5t37 -13.5t37 13.5t13 36.5v102q-24 -15 -60 -15q-78 0 -126.5 51t-48.5 134v140q0 84 50.5 134.5t134.5 50.5zM236 391q24 0 37 13.5
t13 36.5v140q0 23 -13 36.5t-37 13.5t-37 -13.5t-13 -36.5v-140q0 -23 13 -36.5t37 -13.5z" />
    <glyph glyph-name="zero.dnom" horiz-adv-x="325" 
d="M163 460q50 0 80.5 -30.5t30.5 -80.5v-248q0 -50 -30.5 -80.5t-80.5 -30.5q-51 0 -81.5 30.5t-30.5 80.5v248q0 50 30.5 80.5t81.5 30.5zM163 375q-27 0 -27 -26v-137l43 158q-7 5 -16 5zM163 75q12 0 19 7.5t7 18.5v135l-43 -156q8 -5 17 -5z" />
    <glyph glyph-name="one.dnom" horiz-adv-x="228" 
d="M83 0v313h-71v85h21q23 0 36.5 12t13.5 33v7h85v-450h-85z" />
    <glyph glyph-name="two.dnom" horiz-adv-x="301" 
d="M37 0v79q0 40 14 70t34.5 46.5t41 30t34.5 28.5t14 33v62q0 26 -27 26q-12 0 -19 -7.5t-7 -18.5v-25h-85v25q0 50 30.5 80.5t80.5 30.5q51 0 81.5 -30.5t30.5 -80.5v-62q0 -38 -21 -66t-45.5 -42t-45.5 -36t-21 -49v-9h133v-85h-223z" />
    <glyph glyph-name="three.dnom" horiz-adv-x="304" 
d="M144 -10q-51 0 -81.5 30.5t-30.5 80.5v25h85v-25q0 -26 27 -26q12 0 19 7.5t7 18.5v63q0 11 -7 18.5t-19 7.5h-49v85h49q26 0 26 26v48q0 11 -7 18.5t-19 7.5q-27 0 -27 -26v-25h-85v25q0 50 30.5 80.5t81.5 30.5q50 0 80.5 -30.5t30.5 -80.5v-48q0 -41 -20 -69
q20 -28 20 -68v-63q0 -50 -30.5 -80.5t-80.5 -30.5z" />
    <glyph glyph-name="four.dnom" horiz-adv-x="313" 
d="M160 0v74h-147v73l158 303h74v-290h33v-86h-33v-74h-85zM102 160h58v120z" />
    <glyph glyph-name="five.dnom" horiz-adv-x="315" 
d="M165 -10q-51 0 -81.5 30.5t-30.5 80.5v25h85v-25q0 -26 27 -26q12 0 19 7.5t7 18.5v84q0 26 -26 26q-27 0 -27 -26v-4h-85v269h204v-85h-119v-76q13 7 33 7q47 0 76 -31t29 -80v-84q0 -50 -30.5 -80.5t-80.5 -30.5z" />
    <glyph glyph-name="six.dnom" horiz-adv-x="320" 
d="M163 -10q-51 0 -81.5 30.5t-30.5 80.5v248q0 50 30.5 80.5t81.5 30.5q50 0 80.5 -30.5t30.5 -80.5v-25h-85v25q0 11 -7 18.5t-19 7.5q-27 0 -27 -26v-60q13 7 33 7q47 0 76 -31t29 -80v-84q0 -50 -30.5 -80.5t-80.5 -30.5zM163 75q12 0 19 7.5t7 18.5v84q0 26 -26 26
q-27 0 -27 -26v-84q0 -26 27 -26z" />
    <glyph glyph-name="seven.dnom" horiz-adv-x="251" 
d="M37 0l113 365h-137v85h220v-80l-108 -370h-88z" />
    <glyph glyph-name="eight.dnom" horiz-adv-x="321" 
d="M161 -10q-51 0 -81.5 30.5t-30.5 80.5v61q0 40 20 68q-20 28 -20 69v50q0 50 30.5 80.5t81.5 30.5q50 0 80.5 -30.5t30.5 -80.5v-50q0 -41 -20 -69q20 -28 20 -68v-61q0 -50 -30.5 -80.5t-80.5 -30.5zM161 273q26 0 26 26v50q0 11 -7 18.5t-19 7.5q-27 0 -27 -26v-50
q0 -26 27 -26zM161 75q12 0 19 7.5t7 18.5v61q0 11 -7 18.5t-19 7.5q-27 0 -27 -26v-61q0 -26 27 -26z" />
    <glyph glyph-name="nine.dnom" horiz-adv-x="320" 
d="M158 -10q-51 0 -81.5 30.5t-30.5 80.5v25h85v-25q0 -26 27 -26q12 0 19 7.5t7 18.5v60q-13 -7 -33 -7q-47 0 -76 31t-29 80v84q0 50 30.5 80.5t81.5 30.5q50 0 80.5 -30.5t30.5 -80.5v-248q0 -50 -30.5 -80.5t-80.5 -30.5zM157 239q27 0 27 26v84q0 11 -7 18.5t-19 7.5
q-27 0 -27 -26v-84q0 -26 26 -26z" />
    <glyph glyph-name="zero.numr" horiz-adv-x="325" 
d="M163 760q50 0 80.5 -30.5t30.5 -80.5v-248q0 -50 -30.5 -80.5t-80.5 -30.5q-51 0 -81.5 30.5t-30.5 80.5v248q0 50 30.5 80.5t81.5 30.5zM163 675q-27 0 -27 -26v-137l43 158q-7 5 -16 5zM163 375q12 0 19 7.5t7 18.5v135l-43 -156q8 -5 17 -5z" />
    <glyph glyph-name="one.numr" horiz-adv-x="228" 
d="M83 300v313h-71v85h21q23 0 36.5 12t13.5 33v7h85v-450h-85z" />
    <glyph glyph-name="two.numr" horiz-adv-x="301" 
d="M37 300v79q0 40 14 70t34.5 46.5t41 30t34.5 28.5t14 33v62q0 26 -27 26q-12 0 -19 -7.5t-7 -18.5v-25h-85v25q0 50 30.5 80.5t80.5 30.5q51 0 81.5 -30.5t30.5 -80.5v-62q0 -38 -21 -66t-45.5 -42t-45.5 -36t-21 -49v-9h133v-85h-223z" />
    <glyph glyph-name="three.numr" horiz-adv-x="304" 
d="M144 290q-51 0 -81.5 30.5t-30.5 80.5v25h85v-25q0 -26 27 -26q12 0 19 7.5t7 18.5v63q0 11 -7 18.5t-19 7.5h-49v85h49q26 0 26 26v48q0 11 -7 18.5t-19 7.5q-27 0 -27 -26v-25h-85v25q0 50 30.5 80.5t81.5 30.5q50 0 80.5 -30.5t30.5 -80.5v-48q0 -41 -20 -69
q20 -28 20 -68v-63q0 -50 -30.5 -80.5t-80.5 -30.5z" />
    <glyph glyph-name="four.numr" horiz-adv-x="313" 
d="M160 300v74h-147v73l158 303h74v-290h33v-86h-33v-74h-85zM102 460h58v120z" />
    <glyph glyph-name="five.numr" horiz-adv-x="315" 
d="M165 290q-51 0 -81.5 30.5t-30.5 80.5v25h85v-25q0 -26 27 -26q12 0 19 7.5t7 18.5v84q0 26 -26 26q-27 0 -27 -26v-4h-85v269h204v-85h-119v-76q13 7 33 7q47 0 76 -31t29 -80v-84q0 -50 -30.5 -80.5t-80.5 -30.5z" />
    <glyph glyph-name="six.numr" horiz-adv-x="320" 
d="M163 290q-51 0 -81.5 30.5t-30.5 80.5v248q0 50 30.5 80.5t81.5 30.5q50 0 80.5 -30.5t30.5 -80.5v-25h-85v25q0 11 -7 18.5t-19 7.5q-27 0 -27 -26v-60q13 7 33 7q47 0 76 -31t29 -80v-84q0 -50 -30.5 -80.5t-80.5 -30.5zM163 375q12 0 19 7.5t7 18.5v84q0 26 -26 26
q-27 0 -27 -26v-84q0 -26 27 -26z" />
    <glyph glyph-name="seven.numr" horiz-adv-x="251" 
d="M37 300l113 365h-137v85h220v-80l-108 -370h-88z" />
    <glyph glyph-name="eight.numr" horiz-adv-x="321" 
d="M161 290q-51 0 -81.5 30.5t-30.5 80.5v61q0 40 20 68q-20 28 -20 69v50q0 50 30.5 80.5t81.5 30.5q50 0 80.5 -30.5t30.5 -80.5v-50q0 -41 -20 -69q20 -28 20 -68v-61q0 -50 -30.5 -80.5t-80.5 -30.5zM161 573q26 0 26 26v50q0 11 -7 18.5t-19 7.5q-27 0 -27 -26v-50
q0 -26 27 -26zM161 375q12 0 19 7.5t7 18.5v61q0 11 -7 18.5t-19 7.5q-27 0 -27 -26v-61q0 -26 27 -26z" />
    <glyph glyph-name="nine.numr" horiz-adv-x="320" 
d="M158 290q-51 0 -81.5 30.5t-30.5 80.5v25h85v-25q0 -26 27 -26q12 0 19 7.5t7 18.5v60q-13 -7 -33 -7q-47 0 -76 31t-29 80v84q0 50 30.5 80.5t81.5 30.5q50 0 80.5 -30.5t30.5 -80.5v-248q0 -50 -30.5 -80.5t-80.5 -30.5zM157 539q27 0 27 26v84q0 11 -7 18.5t-19 7.5
q-27 0 -27 -26v-84q0 -26 26 -26z" />
    <glyph glyph-name="acute.case" horiz-adv-x="235" 
d="M43 608l58 172h135l-98 -172h-95z" />
    <glyph glyph-name="breve.case" horiz-adv-x="334" 
d="M167 645q-58 0 -93.5 33t-35.5 88v14h85v-14q0 -21 12 -33.5t32 -12.5t31.5 12.5t11.5 33.5v14h85v-14q0 -55 -35 -88t-93 -33z" />
    <glyph glyph-name="caron.case" horiz-adv-x="353" 
d="M137 628l-118 152h115l56 -78l55 78h115l-118 -152h-105z" />
    <glyph glyph-name="circumflex.case" horiz-adv-x="353" 
d="M19 628l118 152h105l118 -152h-115l-55 78l-56 -78h-115z" />
    <glyph glyph-name="dieresis.case" horiz-adv-x="398" 
d="M72 648v132h110v-132h-110zM242 648v132h110v-132h-110z" />
    <glyph glyph-name="dotaccent.case" horiz-adv-x="228" 
d="M72 618v132h110v-132h-110z" />
    <glyph glyph-name="grave.case" horiz-adv-x="235" 
d="M123 608l-98 172h135l58 -172h-95z" />
    <glyph glyph-name="hungarumlaut.case" horiz-adv-x="420" 
d="M43 608l58 172h135l-98 -172h-95zM228 608l58 172h135l-98 -172h-95z" />
    <glyph glyph-name="macron.case" horiz-adv-x="359" 
d="M72 750h241v-90h-241v90z" />
    <glyph glyph-name="ring.case" horiz-adv-x="297" 
d="M161 559q-45 0 -77.5 31t-32.5 79q0 49 32 80t78 31t78.5 -31t32.5 -80q0 -48 -32.5 -79t-78.5 -31zM161 634q15 0 25.5 10t10.5 25q0 16 -10.5 26t-25.5 10t-25 -10t-10 -26q0 -15 10 -25t25 -10z" />
    <glyph glyph-name="tilde.case" horiz-adv-x="407" 
d="M286 653q-43 0 -85 29q-25 18 -38 18q-11 0 -11 -13v-29h-101v39q0 38 19.5 60.5t51.5 22.5q45 0 81 -26q29 -21 42 -21q11 0 11 13v29h101v-39q0 -38 -19.5 -60.5t-51.5 -22.5z" />
    <glyph glyph-name="caron.salt" horiz-adv-x="243" 
d="M39 500l40 250h125l-40 -250h-125z" />
    </font>
</defs>
</svg>
